查看: 72|回復: 1
打印 上一主題 下一主題

[喜劇片] 波音波音 Boeing.Boeing.1965.1080p.BluRay.x264-LATENCY 6.56GB

[復制鏈接]

 成長值: 4790

級別:資源管理組

注冊時間
2017-10-20
最后登錄
2020-4-7
聽眾
1
收聽
0
主題
94557
藍光幣
128417 枚
貢獻
18922 點
跳轉到指定樓層
樓主
發表于 2019-11-16 22:14:55 | 只看該作者 |只看大圖 回帖獎勵 |倒序瀏覽 |閱讀模式


譯  名 波音波音
片  名 Boeing, Boeing
年  代 1965
產  地 美國
類  別 喜劇
語  言 英語 / 法語 / 德語
上映日期 1965-12-22
IMDb評分  6.5/10 from 2475 users
IMDb鏈接  https://www.imdb.com/title/tt0058981
豆瓣評分 0/10 from 0 users
豆瓣鏈接 https://movie.douban.com/subject/3184205/
片  長 102 分鐘
導  演 John Rich
編  劇 Marc Camoletti / 愛德華·安哈爾特 Edward Anhalt
主  演 托尼·柯蒂斯 Tony Curtis
       杰瑞·劉易斯 Jerry Lewis
       Christiane Schmidtmer
       Dany Saval


標  簽 喜劇 | 美國 | 美國電影 | 1965 | TonyCurtis | Boeing | 1960s | 英語發音,中文字幕

簡  介  

  American playboy Bernard Lawrence (Tony Curtis) has cleverly designed a system using the airline timetables to keep going three affairs with flight stewardesses. However, his life soon starts to descend into a shambles after the arrival of a friend, Robert Reed (Jerry Lewis), and a dreaded change to the flight order, whereby it becomes increasingly difficult to keep his three fiancées apart. Written by David Gibson {[email protected]}
  Living in Paris, journalist Bernard has devised a scheme to keep three fiancées: Lufthansa, Air France and British United. Everything works fine as long as they only come home every third day. But when there's a change in their working schedule, they will be able to be home every second day instead. Bernard's carefully structured life is breaking apart. Written by Mattias Thuresson {[email protected]}
  1. Video
  2. ID                                       : 1
  3. Format                                   : AVC
  4. Format/Info                              : Advanced Video Codec
  5. Format profile                           : [email protected]
  6. Format settings                          : CABAC / 4 Ref Frames
  7. Format settings, CABAC                   : Yes
  8. Format settings, Reference frames        : 4 frames
  9. Codec ID                                 : V_MPEG4/ISO/AVC
  10. Duration                                 : 1 h 43 min
  11. Bit rate                                 : 8 331 kb/s
  12. Width                                    : 1 920 pixels
  13. Height                                   : 1 080 pixels
  14. Display aspect ratio                     : 16:9
  15. Frame rate mode                          : Constant
  16. Frame rate                               : 23.976 (24000/1001) FPS
  17. Color space                              : YUV
  18. Chroma subsampling                       : 4:2:0
  19. Bit depth                                : 8 bits
  20. Scan type                                : Progressive
  21. Bits/(Pixel*Frame)                       : 0.168
  22. Stream size                              : 6.00 GiB (92%)
  23. Writing library                          : x264 core 157 r2969 d4099dd
  24. Encoding settings                        : cabac=1 / ref=4 / deblock=1:0:0 / analyse=0x3:0x113 / me=umh / subme=8 / psy=1 / psy_rd=1.00:0.00 / mixed_ref=1 / me_range=16 / chroma_me=1 / trellis=2 / 8x8dct=1 / cqm=0 / deadzone=21,11 / fast_pskip=0 / chroma_qp_offset=-2 / threads=34 / lookahead_threads=5 / sliced_threads=0 / nr=0 / decimate=1 / interlaced=0 / bluray_compat=0 / constrained_intra=0 / bframes=3 / b_pyramid=2 / b_adapt=1 / b_bias=0 / direct=3 / weightb=1 / open_gop=0 / weightp=2 / keyint=250 / keyint_min=23 / scenecut=40 / intra_refresh=0 / rc_lookahead=50 / rc=2pass / mbtree=1 / bitrate=8331 / ratetol=1.0 / qcomp=0.60 / qpmin=0 / qpmax=69 / qpstep=4 / cplxblur=20.0 / qblur=0.5 / ip_ratio=1.40 / aq=1:1.00
  25. Default                                  : Yes
  26. Forced                                   : No

  27. Audio
  28. ID                                       : 2
  29. Format                                   : DTS
  30. Format/Info                              : Digital Theater Systems
  31. Codec ID                                 : A_DTS
  32. Duration                                 : 1 h 43 min
  33. Bit rate mode                            : Constant
  34. Bit rate                                 : 768 kb/s
  35. Channel(s)                               : 1 channel
  36. Channel layout                           : C
  37. Sampling rate                            : 48.0 kHz
  38. Frame rate                               : 93.750 FPS (512 SPF)
  39. Bit depth                                : 24 bits
  40. Compression mode                         : Lossy
  41. Stream size                              : 567 MiB (8%)
  42. Title                                    : English
  43. Language                                 : English
  44. Default                                  : No
  45. Forced                                   : No

  46. Menu
  47. 00:00:00.000                             : en:Chapter 01
  48. 00:10:17.242                             : en:Chapter 02
  49. 00:20:35.776                             : en:Chapter 03
  50. 00:31:42.984                             : en:Chapter 04
  51. 00:45:23.512                             : en:Chapter 05
  52. 01:09:50.228                             : en:Chapter 06
  53. 01:19:49.451                             : en:Chapter 07
  54. 01:31:27.982                             : en:Chapter 08
復制代碼









分享到:  QQ好友和群QQ好友和群
收藏收藏
回復

使用道具 舉報

級別:領銜主演 Lv.6

注冊時間
2018-2-26
最后登錄
2020-4-7
聽眾
16
收聽
0
主題
0
藍光幣
249 枚
貢獻
0 點
沙發
發表于 2019-11-18 10:52:44 | 只看該作者

這東西我收了!謝謝樓主!中國高清電影網真好!
回復

使用道具 舉報

懶得打字嘛,點擊右側快捷回復 【右側內容,后臺自定義】
您需要登錄后才可以回帖 登錄 | 立即注冊

本版積分規則

Archiver|手機版|小黑屋| 中國高清網 ( ICP備17007870號-2 ) |網站地圖 

GMT+8, 2020-4-8 10:02 , Processed in 0.096962 second(s), 37 queries .

Powered by HDchina X3.4

Copyright 2017-2019©HDchina.All right reserved

返回頂部 聯系我們
中国福利彩票的排列三