查看: 182|回復: 4
打印 上一主題 下一主題

[動畫片] 愛寵大機密2/Pet Pet當家2 The.Secret.Life.of.Pets.2.2019.1080p.3D.1080p.BluRay.Half-SBS.x264.DTS-HD.MA.7.1-FGT 13.77GB

[復制鏈接]

 成長值: 4140

級別:資源管理組

注冊時間
2017-10-20
最后登錄
2020-2-21
聽眾
1
收聽
0
主題
92616
藍光幣
101138 枚
貢獻
16978 點
跳轉到指定樓層
樓主
發表于 2019-10-2 12:35:24 | 只看該作者 |只看大圖 回帖獎勵 |倒序瀏覽 |閱讀模式


譯  名 愛寵大機密2 / Pet Pet當家2(港) / 寵物當家2(臺) / 寵物的秘密生活2
片  名 The Secret Life of Pets 2
年  代 2019
產  地 美國
類  別 喜劇 / 動畫 / 冒險
語  言 英語
上映日期 2019-06-07(美國) / 2019-07-05(中國大陸)
IMDb評分  6.5/10 from 12078 users
IMDb鏈接  http://www.imdb.com/title/tt5113040
豆瓣評分 7.2/10 from 35524 users
豆瓣鏈接 https://movie.douban.com/subject/26848167/
片  長 86分鐘
導  演 克里斯·雷納德 Chris Renaud
編  劇 布萊恩·林奇 Brian Lynch
主  演 帕頓·奧斯瓦爾特 Patton Oswalt
       凱文·哈特 Kevin Hart
       哈里森·福特 Harrison Ford
       艾瑞克·斯通斯崔特 Eric Stonestreet
       珍妮·斯蕾特 Jenny Slate
       蒂凡尼·哈迪斯 Tiffany Haddish
       蕾克·貝爾 Lake Bell
       達納·卡維 Dana Carvey
       鮑比·莫尼漢 Bobby Moynihan
       漢尼拔·布勒斯 Hannibal Buress
       克里斯·雷納德 Chris Renaud
       艾麗·坎伯爾 Ellie Kemper
       皮特·霍爾姆斯 Pete Holmes
       尼克·克羅爾 Nick Kroll
       肖恩·吉布朗尼 Sean Giambrone
       梅雷迪斯·薩拉格爾 Meredith Salenger
       邁克爾·貝亞蒂 Michael Beattie
       大衛·阿克德 David Acord
       斯科特·摩西爾 Scott Mosier
       杰米·卡米爾 Jaime Camil
       拉瑞恩·紐曼 Laraine Newman
       布萊恩·T·德萊尼 Brian T. Delaney
       杰西卡·迪西可 Jessica Di Cicco
       桑德拉·艾切維里亞 Sandra Echeverría
       加斯·詹寧斯 Garth Jennings
       塔拉·斯特朗 Tara Strong
       弗雷德·塔特西奧 Fred Tatasciore
       約翰·卡西爾 John Kassir
       斯科特·門維爾 Scott Menville
       馬修·伍德 Matthew Wood


標  簽 動畫 | 寵物 | 喜劇 | 美國 | 搞笑 | 萌 | 2019 | 動物

簡  介  

  《愛寵大機密2》將延續2016年夏天轟動一時的《愛寵大機密》的故事,講述寵物在我們每天離家工作或上學后的生活。照明娛樂創始人兼首席執行官克里斯·梅勒丹德利和他長久以來的合作伙伴珍娜·海莉將共同制作這部續集。《愛寵大機密》是當時開畫成績最好的原創電影,不論是動畫片還是其他類型。
  《愛寵大機密2》繼續由布萊恩·林奇(《小黃人大眼萌》)編劇,并再一次由克里斯·雷納德(《神偷奶爸》系列,《老雷斯的故事》)執導。
  1. Video
  2. ID                                       : 1
  3. Format                                   : AVC
  4. Format/Info                              : Advanced Video Codec
  5. Format profile                           : [email protected]
  6. Format settings                          : CABAC / 3 Ref Frames
  7. Format settings, CABAC                   : Yes
  8. Format settings, Reference frames        : 3 frames
  9. Codec ID                                 : V_MPEG4/ISO/AVC
  10. Duration                                 : 1 h 26 min
  11. Bit rate                                 : 15.5 Mb/s
  12. Width                                    : 1 920 pixels
  13. Height                                   : 1 080 pixels
  14. Display aspect ratio                     : 16:9
  15. Frame rate mode                          : Constant
  16. Frame rate                               : 23.976 (24000/1001) FPS
  17. Color space                              : YUV
  18. Chroma subsampling                       : 4:2:0
  19. Bit depth                                : 8 bits
  20. Scan type                                : Progressive
  21. Bits/(Pixel*Frame)                       : 0.312
  22. Stream size                              : 9.02 GiB (66%)
  23. Title                                    : The.Secret.Life.of.Pets.2.2019.1080p.3D.1080p.BluRay.Half-SBS.x264.DTS-HD.MA.7.1-FGT
  24. Writing library                          : x264 core 148
  25. Encoding settings                        : cabac=1 / ref=3 / deblock=1:-1:-1 / analyse=0x3:0 / me=hex / subme=5 / psy=1 / psy_rd=1.00:0.00 / mixed_ref=0 / me_range=16 / chroma_me=1 / trellis=1 / 8x8dct=1 / cqm=0 / deadzone=21,11 / fast_pskip=0 / chroma_qp_offset=0 / threads=24 / lookahead_threads=6 / sliced_threads=0 / nr=0 / decimate=1 / interlaced=0 / bluray_compat=0 / constrained_intra=0 / bframes=2 / b_pyramid=0 / b_adapt=1 / b_bias=0 / direct=1 / weightb=0 / open_gop=0 / weightp=0 / keyint=24 / keyint_min=2 / scenecut=40 / intra_refresh=0 / rc=abr / mbtree=0 / bitrate=15500 / ratetol=1.0 / qcomp=0.60 / qpmin=0 / qpmax=69 / qpstep=4 / ip_ratio=1.40 / pb_ratio=1.30 / aq=1:1.00
  26. Default                                  : Yes
  27. Forced                                   : No
  28. Color range                              : Limited
  29. Color primaries                          : BT.709
  30. Transfer characteristics                 : BT.709
  31. Matrix coefficients                      : BT.709

  32. Audio #1
  33. ID                                       : 2
  34. Format                                   : DTS XLL
  35. Format/Info                              : Digital Theater Systems
  36. Commercial name                          : DTS-HD Master Audio
  37. Codec ID                                 : A_DTS
  38. Duration                                 : 1 h 26 min
  39. Bit rate mode                            : Variable
  40. Bit rate                                 : 4 111 kb/s
  41. Channel(s)                               : 8 channels
  42. Channel layout                           : C L R LFE Lb Rb Lss Rss
  43. Sampling rate                            : 48.0 kHz
  44. Frame rate                               : 93.750 FPS (512 SPF)
  45. Bit depth                                : 24 bits
  46. Compression mode                         : Lossless
  47. Stream size                              : 2.47 GiB (18%)
  48. Title                                    : The.Secret.Life.of.Pets.2.2019.1080p.3D.1080p.BluRay.Half-SBS.x264.DTS-HD.MA.7.1-FGT
  49. Language                                 : English
  50. Default                                  : Yes
  51. Forced                                   : No

  52. Audio #2
  53. ID                                       : 3
  54. Format                                   : E-AC-3
  55. Format/Info                              : Enhanced AC-3
  56. Commercial name                          : Dolby Digital Plus
  57. Format profile                           : Blu-ray Disc
  58. Codec ID                                 : A_EAC3
  59. Duration                                 : 1 h 26 min
  60. Bit rate mode                            : Constant
  61. Bit rate                                 : 768 kb/s
  62. Channel(s)                               : 8 channels
  63. Channel layout                           : L R C LFE Ls Rs Lb Rb
  64. Sampling rate                            : 48.0 kHz
  65. Frame rate                               : 31.250 FPS (1536 SPF)
  66. Compression mode                         : Lossy
  67. Stream size                              : 473 MiB (3%)
  68. Title                                    : The.Secret.Life.of.Pets.2.2019.1080p.3D.1080p.BluRay.Half-SBS.x264.DTS-HD.MA.7.1-FGT
  69. Language                                 : Spanish
  70. Service kind                             : Complete Main
  71. Default                                  : No
  72. Forced                                   : No

  73. Audio #3
  74. ID                                       : 4
  75. Format                                   : E-AC-3
  76. Format/Info                              : Enhanced AC-3
  77. Commercial name                          : Dolby Digital Plus
  78. Format profile                           : Blu-ray Disc
  79. Codec ID                                 : A_EAC3
  80. Duration                                 : 1 h 26 min
  81. Bit rate mode                            : Constant
  82. Bit rate                                 : 768 kb/s
  83. Channel(s)                               : 8 channels
  84. Channel layout                           : L R C LFE Ls Rs Lb Rb
  85. Sampling rate                            : 48.0 kHz
  86. Frame rate                               : 31.250 FPS (1536 SPF)
  87. Compression mode                         : Lossy
  88. Stream size                              : 473 MiB (3%)
  89. Title                                    : The.Secret.Life.of.Pets.2.2019.1080p.3D.1080p.BluRay.Half-SBS.x264.DTS-HD.MA.7.1-FGT
  90. Language                                 : Portuguese
  91. Service kind                             : Complete Main
  92. Default                                  : No
  93. Forced                                   : No

  94. Audio #4
  95. ID                                       : 5
  96. Format                                   : AC-3
  97. Format/Info                              : Audio Coding 3
  98. Commercial name                          : Dolby Digital
  99. Codec ID                                 : A_AC3
  100. Duration                                 : 1 h 26 min
  101. Bit rate mode                            : Constant
  102. Bit rate                                 : 640 kb/s
  103. Channel(s)                               : 6 channels
  104. Channel layout                           : L R C LFE Ls Rs
  105. Sampling rate                            : 48.0 kHz
  106. Frame rate                               : 31.250 FPS (1536 SPF)
  107. Bit depth                                : 16 bits
  108. Compression mode                         : Lossy
  109. Stream size                              : 394 MiB (3%)
  110. Title                                    : The.Secret.Life.of.Pets.2.2019.1080p.3D.1080p.BluRay.Half-SBS.x264.DTS-HD.MA.7.1-FGT
  111. Language                                 : Thai
  112. Service kind                             : Complete Main
  113. Default                                  : No
  114. Forced                                   : No

  115. Audio #5
  116. ID                                       : 6
  117. Format                                   : E-AC-3
  118. Format/Info                              : Enhanced AC-3
  119. Commercial name                          : Dolby Digital Plus
  120. Format profile                           : Blu-ray Disc
  121. Codec ID                                 : A_EAC3
  122. Duration                                 : 1 h 26 min
  123. Bit rate mode                            : Constant
  124. Bit rate                                 : 768 kb/s
  125. Channel(s)                               : 8 channels
  126. Channel layout                           : L R C LFE Ls Rs Lb Rb
  127. Sampling rate                            : 48.0 kHz
  128. Frame rate                               : 31.250 FPS (1536 SPF)
  129. Compression mode                         : Lossy
  130. Stream size                              : 473 MiB (3%)
  131. Title                                    : The.Secret.Life.of.Pets.2.2019.1080p.3D.1080p.BluRay.Half-SBS.x264.DTS-HD.MA.7.1-FGT
  132. Language                                 : Chinese
  133. Service kind                             : Complete Main
  134. Default                                  : No
  135. Forced                                   : No

  136. Audio #6
  137. ID                                       : 7
  138. Format                                   : E-AC-3
  139. Format/Info                              : Enhanced AC-3
  140. Commercial name                          : Dolby Digital Plus
  141. Format profile                           : Blu-ray Disc
  142. Codec ID                                 : A_EAC3
  143. Duration                                 : 1 h 26 min
  144. Bit rate mode                            : Constant
  145. Bit rate                                 : 768 kb/s
  146. Channel(s)                               : 8 channels
  147. Channel layout                           : L R C LFE Ls Rs Lb Rb
  148. Sampling rate                            : 48.0 kHz
  149. Frame rate                               : 31.250 FPS (1536 SPF)
  150. Compression mode                         : Lossy
  151. Stream size                              : 473 MiB (3%)
  152. Title                                    : The.Secret.Life.of.Pets.2.2019.1080p.3D.1080p.BluRay.Half-SBS.x264.DTS-HD.MA.7.1-FGT
  153. Language                                 : Chinese
  154. Service kind                             : Complete Main
  155. Default                                  : No
  156. Forced                                   : No

  157. Text #1
  158. ID                                       : 8
  159. Format                                   : PGS
  160. Muxing mode                              : zlib
  161. Codec ID                                 : S_HDMV/PGS
  162. Codec ID/Info                            : Picture based subtitle format used on BDs/HD-DVDs
  163. Duration                                 : 1 h 25 min
  164. Bit rate                                 : 61.2 kb/s
  165. Count of elements                        : 3284
  166. Stream size                              : 37.4 MiB (0%)
  167. Title                                    : English-PGS
  168. Language                                 : English
  169. Default                                  : Yes
  170. Forced                                   : No

  171. Text #2
  172. ID                                       : 9
  173. Format                                   : PGS
  174. Muxing mode                              : zlib
  175. Codec ID                                 : S_HDMV/PGS
  176. Codec ID/Info                            : Picture based subtitle format used on BDs/HD-DVDs
  177. Duration                                 : 1 h 25 min
  178. Bit rate                                 : 36.5 kb/s
  179. Count of elements                        : 2178
  180. Stream size                              : 22.3 MiB (0%)
  181. Title                                    : Spanish-PGS
  182. Language                                 : Spanish
  183. Default                                  : No
  184. Forced                                   : No

  185. Text #3
  186. ID                                       : 10
  187. Format                                   : PGS
  188. Muxing mode                              : zlib
  189. Codec ID                                 : S_HDMV/PGS
  190. Codec ID/Info                            : Picture based subtitle format used on BDs/HD-DVDs
  191. Duration                                 : 1 h 24 min
  192. Bit rate                                 : 37.5 kb/s
  193. Count of elements                        : 2184
  194. Stream size                              : 22.7 MiB (0%)
  195. Title                                    : Portuguese-PGS
  196. Language                                 : Portuguese
  197. Default                                  : No
  198. Forced                                   : No

  199. Text #4
  200. ID                                       : 11
  201. Format                                   : PGS
  202. Muxing mode                              : zlib
  203. Codec ID                                 : S_HDMV/PGS
  204. Codec ID/Info                            : Picture based subtitle format used on BDs/HD-DVDs
  205. Duration                                 : 1 h 24 min
  206. Bit rate                                 : 26.1 kb/s
  207. Count of elements                        : 2160
  208. Stream size                              : 15.8 MiB (0%)
  209. Title                                    : Thai-PGS
  210. Language                                 : Thai
  211. Default                                  : No
  212. Forced                                   : No

  213. Text #5
  214. ID                                       : 12
  215. Format                                   : PGS
  216. Muxing mode                              : zlib
  217. Codec ID                                 : S_HDMV/PGS
  218. Codec ID/Info                            : Picture based subtitle format used on BDs/HD-DVDs
  219. Duration                                 : 1 h 25 min
  220. Bit rate                                 : 27.0 kb/s
  221. Count of elements                        : 2194
  222. Stream size                              : 16.5 MiB (0%)
  223. Title                                    : Chinese-PGS
  224. Language                                 : Chinese
  225. Default                                  : No
  226. Forced                                   : No

  227. Text #6
  228. ID                                       : 13
  229. Format                                   : PGS
  230. Muxing mode                              : zlib
  231. Codec ID                                 : S_HDMV/PGS
  232. Codec ID/Info                            : Picture based subtitle format used on BDs/HD-DVDs
  233. Duration                                 : 1 h 25 min
  234. Bit rate                                 : 28.4 kb/s
  235. Count of elements                        : 2228
  236. Stream size                              : 17.4 MiB (0%)
  237. Title                                    : Chinese-PGS
  238. Language                                 : Chinese
  239. Default                                  : No
  240. Forced                                   : No

  241. Text #7
  242. ID                                       : 14
  243. Format                                   : PGS
  244. Muxing mode                              : zlib
  245. Codec ID                                 : S_HDMV/PGS
  246. Codec ID/Info                            : Picture based subtitle format used on BDs/HD-DVDs
  247. Duration                                 : 1 h 20 min
  248. Bit rate                                 : 254 b/s
  249. Count of elements                        : 10
  250. Stream size                              : 150 KiB (0%)
  251. Title                                    : Spanish-FORCED-PGS
  252. Language                                 : Spanish
  253. Default                                  : No
  254. Forced                                   : No

  255. Text #8
  256. ID                                       : 15
  257. Format                                   : PGS
  258. Muxing mode                              : zlib
  259. Codec ID                                 : S_HDMV/PGS
  260. Codec ID/Info                            : Picture based subtitle format used on BDs/HD-DVDs
  261. Duration                                 : 1 h 20 min
  262. Bit rate                                 : 630 b/s
  263. Count of elements                        : 32
  264. Stream size                              : 371 KiB (0%)
  265. Title                                    : Portuguese-FORCED-PGS
  266. Language                                 : Portuguese
  267. Default                                  : No
  268. Forced                                   : No

  269. Text #9
  270. ID                                       : 16
  271. Format                                   : PGS
  272. Muxing mode                              : zlib
  273. Codec ID                                 : S_HDMV/PGS
  274. Codec ID/Info                            : Picture based subtitle format used on BDs/HD-DVDs
  275. Duration                                 : 6 min 38 s
  276. Bit rate                                 : 5 062 b/s
  277. Count of elements                        : 36
  278. Stream size                              : 246 KiB (0%)
  279. Title                                    : Chinese-FORCED-PGS
  280. Language                                 : Chinese
  281. Default                                  : No
  282. Forced                                   : No

  283. Menu
  284. 00:00:00.000                             : en:Chapter 01
  285. 00:05:34.542                             : en:Chapter 02
  286. 00:10:07.815                             : en:Chapter 03
  287. 00:13:26.305                             : en:Chapter 04
  288. 00:16:39.790                             : en:Chapter 05
  289. 00:19:56.945                             : en:Chapter 06
  290. 00:24:10.073                             : en:Chapter 07
  291. 00:28:15.735                             : en:Chapter 08
  292. 00:30:54.269                             : en:Chapter 09
  293. 00:35:15.113                             : en:Chapter 10
  294. 00:39:55.976                             : en:Chapter 11
  295. 00:45:47.327                             : en:Chapter 12
  296. 00:49:51.822                             : en:Chapter 13
  297. 00:56:54.994                             : en:Chapter 14
  298. 00:58:35.220                             : en:Chapter 15
  299. 01:02:48.931                             : en:Chapter 16
  300. 01:07:16.615                             : en:Chapter 17
  301. 01:12:48.822                             : en:Chapter 18
  302. 01:15:21.808                             : en:Chapter 19
  303. 01:18:10.018                             : en:Chapter 20
復制代碼









分享到:  QQ好友和群QQ好友和群
收藏收藏
VIP會員免費任意下載本站所有資源!---點擊開通
回復

使用道具 舉報

級別:專業龍套 Lv.4

注冊時間
2018-12-13
最后登錄
2019-12-18
聽眾
15
收聽
0
主題
0
藍光幣
285 枚
貢獻
0 點
QQ
沙發
發表于 2019-10-8 11:09:30 | 只看該作者
謝謝分享
VIP會員免費任意下載本站所有資源!---點擊開通
回復

使用道具 舉報

級別:初級觀眾 Lv.1

注冊時間
2019-2-8
最后登錄
2019-10-9
聽眾
9
收聽
0
主題
0
藍光幣
9 枚
貢獻
0 點
板凳
發表于 2019-10-9 20:09:05 | 只看該作者
謝謝分享
VIP會員免費任意下載本站所有資源!---點擊開通
回復

使用道具 舉報

級別:初級觀眾 Lv.1

注冊時間
2019-6-24
最后登錄
2019-12-26
聽眾
5
收聽
0
主題
0
藍光幣
1 枚
貢獻
0 點
地板
發表于 2019-11-11 17:10:55 | 只看該作者
多謝樓主分享了
VIP會員免費任意下載本站所有資源!---點擊開通
回復

使用道具 舉報

級別:初級觀眾 Lv.1

注冊時間
2020-2-15
最后登錄
2020-2-15
聽眾
1
收聽
0
主題
0
藍光幣
0 枚
貢獻
0 點
5#
發表于 6 天前 | 只看該作者

這東西我收了!謝謝樓主!中國高清電影網真好!
VIP會員免費任意下載本站所有資源!---點擊開通
回復

使用道具 舉報

懶得打字嘛,點擊右側快捷回復 【右側內容,后臺自定義】
您需要登錄后才可以回帖 登錄 | 立即注冊

本版積分規則

Archiver|手機版|小黑屋| 中國高清網 |網站地圖

GMT+8, 2020-2-21 17:52 , Processed in 0.152717 second(s), 38 queries .

Powered by HDchina X3.4

Copyright 2017-2019©HDchina.All right reserved

返回頂部 聯系我們
中国福利彩票的排列三