查看: 236|回復: 0
打印 上一主題 下一主題

[8bit.SDR] 超人之死與超人歸來 The.Death.and.Return.of.Superman.2019.2160p.BluRay.x264.8bit.SDR.DTS-HD.MA.5.1-SWTYBLZ 17.37GB

[復制鏈接]

 成長值: 3260

級別:資源管理組

注冊時間
2017-10-20
最后登錄
2019-11-25
聽眾
1
收聽
0
主題
87547
藍光幣
64844 枚
貢獻
11906 點
跳轉到指定樓層
樓主
發表于 2019-10-6 16:40:30 | 只看該作者 |只看大圖 回帖獎勵 |倒序瀏覽 |閱讀模式


譯  名 超人之死與超人歸來
片  名 The Death and Return of Superman
年  代 2019
產  地 美國
類  別 動畫
語  言 英語
上映日期 2019-10-01(美國)
IMDb鏈接  http://www.imdb.com/title/tt11043546
豆瓣評分 0/10 from 0 users
豆瓣鏈接 https://movie.douban.com/subject/34845738/
片  長 166分鐘
導  演 杰克·卡斯托雷納 Jake Castorena / 劉山姆 Sam Liu
編  劇 比爾·芬格 Bill Finger
主  演 杰瑞·奧康奈爾 Jerry O'Connell
       麗貝卡·羅梅恩 Rebecca Romijn
       羅莎里奧·道森 Rosario Dawson
       耐姆比·耐姆比 Nyambi Nyambi
       喬納森·亞當斯 Jonathan Adams
       洛奇·卡羅爾 Rocky Carroll
       特雷弗·德瓦 Trevor Devall
       保羅·伊丁 Paul Eiding
       詹妮弗·黑爾 Jennifer Hale
       查爾斯·哈爾福德 Charles Halford
       艾麗卡·魯特雷爾 Erica Luttrell
       馬克斯·邁特爾曼 Max Mittelman
       托克斯·奧拉貢多耶 Toks Olagundoye
       里克·帕斯夸隆 Rick Pasqualone
       Amanda Troop


簡  介  

  The Death of Superman and Reign of the Supermen now presented as an over two-hour unabridged and seamless animated feature. Witness the no-holds-barred battle between the Justice League and an unstoppable alien force known only as Doomsday, a battle that only Superman can finish and will forever change the face of Metropolis.
  The Death and Return of Superman finds Superman in a fight to the finish when the Man of Steel becomes the only hero who can stand in the way of the monstrous creature Doomsday and his unstoppable rampage. Superman saves the planet, but not himself, leaving Earth’s citizens – and his heroic contemporaries – dealing with a world without Superman. The aftermath of Superman’s death, and the subsequent disappearance of his body, leads to a new mystery – is Superman still alive? The question is further complicated when four new super-powered individuals – Steel, Cyborg Superman, Superboy and the Eradicator – emerge to proclaim themselves as the ultimate hero. In the end, only one will be able to proclaim himself the world’s true Superman.
  1. Video
  2. ID                                       : 1
  3. Format                                   : AVC
  4. Format/Info                              : Advanced Video Codec
  5. Format profile                           : [email protected]
  6. Format settings                          : CABAC / 5 Ref Frames
  7. Format settings, CABAC                   : Yes
  8. Format settings, Reference frames        : 5 frames
  9. Codec ID                                 : V_MPEG4/ISO/AVC
  10. Duration                                 : 2 h 46 min
  11. Bit rate                                 : 11.9 Mb/s
  12. Width                                    : 3 840 pixels
  13. Height                                   : 2 160 pixels
  14. Display aspect ratio                     : 16:9
  15. Frame rate mode                          : Constant
  16. Frame rate                               : 23.976 (24000/1001) FPS
  17. Color space                              : YUV
  18. Chroma subsampling                       : 4:2:0
  19. Bit depth                                : 8 bits
  20. Scan type                                : Progressive
  21. Bits/(Pixel*Frame)                       : 0.060
  22. Stream size                              : 13.8 GiB (80%)
  23. Title                                    : The.Death.and.Return.of.Superman.2019.2160p.BluRay.x264.8bit.SDR.DTS-HD.MA.5.1-SWTYBLZ
  24. Writing library                          : x264 core 157 r2935 545de2f
  25. Encoding settings                        : cabac=1 / ref=5 / deblock=1:1:1 / analyse=0x3:0x113 / me=umh / subme=10 / psy=1 / psy_rd=0.40:0.00 / mixed_ref=1 / me_range=48 / chroma_me=1 / trellis=2 / 8x8dct=1 / cqm=0 / deadzone=21,11 / fast_pskip=1 / chroma_qp_offset=-2 / threads=48 / lookahead_threads=5 / sliced_threads=0 / nr=0 / decimate=0 / interlaced=0 / bluray_compat=0 / constrained_intra=0 / bframes=5 / b_pyramid=2 / b_adapt=2 / b_bias=0 / direct=3 / weightb=1 / open_gop=0 / weightp=2 / keyint=250 / keyint_min=23 / scenecut=40 / intra_refresh=0 / rc_lookahead=50 / rc=crf / mbtree=1 / crf=14.0 / qcomp=0.60 / qpmin=0 / qpmax=69 / qpstep=4 / ip_ratio=1.40 / aq=1:0.60
  26. Language                                 : English
  27. Default                                  : Yes
  28. Forced                                   : No

  29. Audio #1
  30. ID                                       : 2
  31. Format                                   : DTS XLL
  32. Format/Info                              : Digital Theater Systems
  33. Commercial name                          : DTS-HD Master Audio
  34. Codec ID                                 : A_DTS
  35. Duration                                 : 2 h 46 min
  36. Bit rate mode                            : Variable
  37. Bit rate                                 : 2 364 kb/s
  38. Channel(s)                               : 6 channels
  39. Channel layout                           : C L R Ls Rs LFE
  40. Sampling rate                            : 48.0 kHz
  41. Frame rate                               : 93.750 FPS (512 SPF)
  42. Bit depth                                : 24 bits
  43. Compression mode                         : Lossless
  44. Stream size                              : 2.75 GiB (16%)
  45. Title                                    : The.Death.and.Return.of.Superman.2019.2160p.BluRay.x264.8bit.SDR.DTS-HD.MA.5.1-SWTYBLZ
  46. Language                                 : English
  47. Default                                  : Yes
  48. Forced                                   : No

  49. Audio #2
  50. ID                                       : 3
  51. Format                                   : AC-3
  52. Format/Info                              : Audio Coding 3
  53. Commercial name                          : Dolby Digital
  54. Codec ID                                 : A_AC3
  55. Duration                                 : 2 h 46 min
  56. Bit rate mode                            : Constant
  57. Bit rate                                 : 640 kb/s
  58. Channel(s)                               : 6 channels
  59. Channel layout                           : L R C LFE Ls Rs
  60. Sampling rate                            : 48.0 kHz
  61. Frame rate                               : 31.250 FPS (1536 SPF)
  62. Bit depth                                : 16 bits
  63. Compression mode                         : Lossy
  64. Stream size                              : 762 MiB (4%)
  65. Title                                    : The.Death.and.Return.of.Superman.2019.2160p.BluRay.x264.8bit.SDR.DTS-HD.MA.5.1-SWTYBLZ
  66. Language                                 : English
  67. Service kind                             : Complete Main
  68. Default                                  : No
  69. Forced                                   : No

  70. Text #1
  71. ID                                       : 4
  72. Format                                   : UTF-8
  73. Codec ID                                 : S_TEXT/UTF8
  74. Codec ID/Info                            : UTF-8 Plain Text
  75. Duration                                 : 2 h 45 min
  76. Bit rate                                 : 47 b/s
  77. Count of elements                        : 1805
  78. Stream size                              : 57.2 KiB (0%)
  79. Title                                    : English-SRT
  80. Language                                 : English
  81. Default                                  : Yes
  82. Forced                                   : No

  83. Text #2
  84. ID                                       : 5
  85. Format                                   : PGS
  86. Muxing mode                              : zlib
  87. Codec ID                                 : S_HDMV/PGS
  88. Codec ID/Info                            : Picture based subtitle format used on BDs/HD-DVDs
  89. Duration                                 : 2 h 45 min
  90. Bit rate                                 : 31.1 kb/s
  91. Count of elements                        : 4282
  92. Stream size                              : 36.9 MiB (0%)
  93. Title                                    : English-PGS
  94. Language                                 : English
  95. Default                                  : No
  96. Forced                                   : No

  97. Text #3
  98. ID                                       : 6
  99. Format                                   : PGS
  100. Muxing mode                              : zlib
  101. Codec ID                                 : S_HDMV/PGS
  102. Codec ID/Info                            : Picture based subtitle format used on BDs/HD-DVDs
  103. Duration                                 : 2 h 45 min
  104. Bit rate                                 : 27.3 kb/s
  105. Count of elements                        : 3734
  106. Stream size                              : 32.3 MiB (0%)
  107. Title                                    : French-PGS
  108. Language                                 : French
  109. Default                                  : No
  110. Forced                                   : No

  111. Text #4
  112. ID                                       : 7
  113. Format                                   : PGS
  114. Muxing mode                              : zlib
  115. Codec ID                                 : S_HDMV/PGS
  116. Codec ID/Info                            : Picture based subtitle format used on BDs/HD-DVDs
  117. Duration                                 : 2 h 45 min
  118. Bit rate                                 : 28.6 kb/s
  119. Count of elements                        : 3750
  120. Stream size                              : 33.8 MiB (0%)
  121. Title                                    : Spanish-PGS
  122. Language                                 : Spanish
  123. Default                                  : No
  124. Forced                                   : No

  125. Menu
  126. 00:00:00.000                             : en:Chapter 01
  127. 00:07:48.926                             : en:Chapter 02
  128. 00:14:27.992                             : en:Chapter 03
  129. 00:25:28.151                             : en:Chapter 04
  130. 00:33:27.630                             : en:Chapter 05
  131. 00:43:19.805                             : en:Chapter 06
  132. 00:50:19.766                             : en:Chapter 07
  133. 01:00:19.282                             : en:Chapter 08
  134. 01:09:33.878                             : en:Chapter 09
  135. 01:18:22.489                             : en:Chapter 10
  136. 01:26:38.693                             : en:Chapter 11
  137. 01:32:43.224                             : en:Chapter 12
  138. 01:40:51.879                             : en:Chapter 13
  139. 01:51:19.881                             : en:Chapter 14
  140. 01:59:28.119                             : en:Chapter 15
  141. 02:08:28.742                             : en:Chapter 16
  142. 02:17:40.126                             : en:Chapter 17
  143. 02:27:44.063                             : en:Chapter 18
  144. 02:35:26.317                             : en:Chapter 19
  145. 02:42:49.801                             : en:Chapter 20
復制代碼








本帖隱藏的下載地址需要VIP會員才可瀏覽,您需要升級才可瀏覽,點擊這里升級VIP
分享到:  QQ好友和群QQ好友和群
收藏收藏
VIP會員免費任意下載本站所有資源!---點擊開通
回復

使用道具 舉報

懶得打字嘛,點擊右側快捷回復 【右側內容,后臺自定義】
您需要登錄后才可以回帖 登錄 | 立即注冊

本版積分規則

QQ|Archiver|手機版|小黑屋| 中國高清網 |網站地圖

GMT+8, 2019-11-25 15:08 , Processed in 1.601711 second(s), 36 queries .

Powered by HDchina X3.4

Copyright 2017-2019©HDchina.All right reserved

返回頂部 聯系我們
中国福利彩票的排列三