查看: 68|回復: 1
打印 上一主題 下一主題

[喜劇片] 亞當斯一家的價值觀/愛登士家庭 2 Addams.Family.Values.1993.1080p.BluRay.REMUX.AVC.DTS-HD.MA.5.1-FGT 26.13GB

[復制鏈接]

 成長值: 3370

級別:資源管理組

注冊時間
2017-10-20
最后登錄
2019-12-6
聽眾
1
收聽
0
主題
88073
藍光幣
68292 枚
貢獻
12435 點
跳轉到指定樓層
樓主
發表于 2019-10-7 01:08:37 | 只看該作者 |只看大圖 回帖獎勵 |倒序瀏覽 |閱讀模式


譯  名 亞當斯一家的價值觀 / 愛登士家庭 2 / 阿達一族
片  名 Addams Family Values
年  代 1993
產  地 美國
類  別 喜劇 / 驚悚 / 家庭 / 奇幻
語  言 英語
上映日期 1993-11-19
IMDb評分  6.7/10 from 70740 users
IMDb鏈接  http://www.imdb.com/title/tt0106220
豆瓣評分 8.7/10 from 20404 users
豆瓣鏈接 https://movie.douban.com/subject/1299900/
片  長 94 分鐘
導  演 巴里·索南菲爾德 Barry Sonnenfeld
編  劇 Charles Addams / 保羅·魯德尼克 Paul Rudnick
主  演 克里斯汀·芭倫斯基 Christine Baranski


標  簽 哥特 | 黑色幽默 | 美國 | 喜劇 | 美國電影 | 魔幻 | 奇幻 | 1993

簡  介  

  亞當斯莊園多了一個剛出生的嬰兒,Morticia(Anjelica Huston 飾)被他搞得焦頭爛額。Gomez(勞爾·朱力亞 Raul Julia 飾)雇了個保姆Debiie,她很討亞當斯一家人的歡心。但Pugsley和Wednesday看穿她的用心,用來她是有名的“黑寡婦”,小時候便殺死了她的父母,后來又連續為錢殺死了她的兩個丈夫。但當孩子們還來不及告發Debbie時,Debbie已經將他們都送去了夏令營,和Fester叔叔結婚了。婚后,Debbie想盡辦法想要把Fester叔叔殺死,還要偽裝成一場意外,但每一次都沒能得逞。而盡管夏令營很好玩,但孩子們不斷的惹老師生氣,不停地破壞小朋友們的游戲氣氛,為的就是老師能早點把他們送回家,好讓他們能警告他們的家人:小心Debbie……

獲獎情況  

  第66屆奧斯卡金像獎(1994)
  最佳藝術指導(提名) 馬文·馬奇 / 肯·亞當

  第47屆英國電影學院獎(1994)
  電影獎 最佳化妝/發型(提名) 小弗雷德·C·布魯 / 凱文·黑尼 / Fern Buchner / Katherine James
  1. Video
  2. ID                                       : 1
  3. Format                                   : AVC
  4. Format/Info                              : Advanced Video Codec
  5. Format profile                           : [email protected]
  6. Format settings                          : CABAC / 4 Ref Frames
  7. Format settings, CABAC                   : Yes
  8. Format settings, Reference frames        : 4 frames
  9. Codec ID                                 : V_MPEG4/ISO/AVC
  10. Duration                                 : 1 h 34 min
  11. Bit rate mode                            : Variable
  12. Bit rate                                 : 33.8 Mb/s
  13. Maximum bit rate                         : 36.0 Mb/s
  14. Width                                    : 1 920 pixels
  15. Height                                   : 1 080 pixels
  16. Display aspect ratio                     : 16:9
  17. Frame rate mode                          : Constant
  18. Frame rate                               : 23.976 (24000/1001) FPS
  19. Color space                              : YUV
  20. Chroma subsampling                       : 4:2:0
  21. Bit depth                                : 8 bits
  22. Scan type                                : Progressive
  23. Bits/(Pixel*Frame)                       : 0.680
  24. Stream size                              : 22.2 GiB (85%)
  25. Title                                    : Addams.Family.Values.1993.1080p.BluRay.REMUX.AVC.DTS-HD.MA.5.1-FGT
  26. Language                                 : English
  27. Default                                  : No
  28. Forced                                   : No

  29. Audio #1
  30. ID                                       : 2
  31. Format                                   : DTS XLL
  32. Format/Info                              : Digital Theater Systems
  33. Commercial name                          : DTS-HD Master Audio
  34. Codec ID                                 : A_DTS
  35. Duration                                 : 1 h 34 min
  36. Bit rate mode                            : Variable
  37. Bit rate                                 : 3 773 kb/s
  38. Channel(s)                               : 6 channels
  39. Channel layout                           : C L R Ls Rs LFE
  40. Sampling rate                            : 48.0 kHz
  41. Frame rate                               : 93.750 FPS (512 SPF)
  42. Bit depth                                : 24 bits
  43. Compression mode                         : Lossless
  44. Stream size                              : 2.48 GiB (10%)
  45. Title                                    : Addams.Family.Values.1993.1080p.BluRay.REMUX.AVC.DTS-HD.MA.5.1-FGT
  46. Language                                 : English
  47. Default                                  : Yes
  48. Forced                                   : No

  49. Audio #2
  50. ID                                       : 3
  51. Format                                   : AC-3
  52. Format/Info                              : Audio Coding 3
  53. Commercial name                          : Dolby Digital
  54. Codec ID                                 : A_AC3
  55. Duration                                 : 1 h 34 min
  56. Bit rate mode                            : Constant
  57. Bit rate                                 : 640 kb/s
  58. Channel(s)                               : 6 channels
  59. Channel layout                           : L R C LFE Ls Rs
  60. Sampling rate                            : 48.0 kHz
  61. Frame rate                               : 31.250 FPS (1536 SPF)
  62. Bit depth                                : 16 bits
  63. Compression mode                         : Lossy
  64. Stream size                              : 431 MiB (2%)
  65. Title                                    : Addams.Family.Values.1993.1080p.BluRay.REMUX.AVC.DTS-HD.MA.5.1-FGT
  66. Language                                 : English
  67. Service kind                             : Complete Main
  68. Default                                  : No
  69. Forced                                   : No

  70. Audio #3
  71. ID                                       : 4
  72. Format                                   : AC-3
  73. Format/Info                              : Audio Coding 3
  74. Commercial name                          : Dolby Digital
  75. Codec ID                                 : A_AC3
  76. Duration                                 : 1 h 34 min
  77. Bit rate mode                            : Constant
  78. Bit rate                                 : 224 kb/s
  79. Channel(s)                               : 2 channels
  80. Channel layout                           : L R
  81. Sampling rate                            : 48.0 kHz
  82. Frame rate                               : 31.250 FPS (1536 SPF)
  83. Bit depth                                : 16 bits
  84. Compression mode                         : Lossy
  85. Stream size                              : 151 MiB (1%)
  86. Title                                    : Addams.Family.Values.1993.1080p.BluRay.REMUX.AVC.DTS-HD.MA.5.1-FGT
  87. Language                                 : Spanish
  88. Service kind                             : Complete Main
  89. Default                                  : No
  90. Forced                                   : No

  91. Audio #4
  92. ID                                       : 5
  93. Format                                   : AC-3
  94. Format/Info                              : Audio Coding 3
  95. Commercial name                          : Dolby Digital
  96. Codec ID                                 : A_AC3
  97. Duration                                 : 1 h 34 min
  98. Bit rate mode                            : Constant
  99. Bit rate                                 : 224 kb/s
  100. Channel(s)                               : 2 channels
  101. Channel layout                           : L R
  102. Sampling rate                            : 48.0 kHz
  103. Frame rate                               : 31.250 FPS (1536 SPF)
  104. Bit depth                                : 16 bits
  105. Compression mode                         : Lossy
  106. Stream size                              : 151 MiB (1%)
  107. Title                                    : Addams.Family.Values.1993.1080p.BluRay.REMUX.AVC.DTS-HD.MA.5.1-FGT
  108. Language                                 : Spanish
  109. Service kind                             : Complete Main
  110. Default                                  : No
  111. Forced                                   : No

  112. Audio #5
  113. ID                                       : 6
  114. Format                                   : AC-3
  115. Format/Info                              : Audio Coding 3
  116. Commercial name                          : Dolby Digital
  117. Codec ID                                 : A_AC3
  118. Duration                                 : 1 h 34 min
  119. Bit rate mode                            : Constant
  120. Bit rate                                 : 224 kb/s
  121. Channel(s)                               : 2 channels
  122. Channel layout                           : L R
  123. Sampling rate                            : 48.0 kHz
  124. Frame rate                               : 31.250 FPS (1536 SPF)
  125. Bit depth                                : 16 bits
  126. Compression mode                         : Lossy
  127. Stream size                              : 151 MiB (1%)
  128. Title                                    : Addams.Family.Values.1993.1080p.BluRay.REMUX.AVC.DTS-HD.MA.5.1-FGT
  129. Language                                 : Italian
  130. Service kind                             : Complete Main
  131. Default                                  : No
  132. Forced                                   : No

  133. Audio #6
  134. ID                                       : 7
  135. Format                                   : AC-3
  136. Format/Info                              : Audio Coding 3
  137. Commercial name                          : Dolby Digital
  138. Codec ID                                 : A_AC3
  139. Duration                                 : 1 h 34 min
  140. Bit rate mode                            : Constant
  141. Bit rate                                 : 224 kb/s
  142. Channel(s)                               : 2 channels
  143. Channel layout                           : L R
  144. Sampling rate                            : 48.0 kHz
  145. Frame rate                               : 31.250 FPS (1536 SPF)
  146. Bit depth                                : 16 bits
  147. Compression mode                         : Lossy
  148. Stream size                              : 151 MiB (1%)
  149. Title                                    : Addams.Family.Values.1993.1080p.BluRay.REMUX.AVC.DTS-HD.MA.5.1-FGT
  150. Language                                 : German
  151. Service kind                             : Complete Main
  152. Default                                  : No
  153. Forced                                   : No

  154. Audio #7
  155. ID                                       : 8
  156. Format                                   : AC-3
  157. Format/Info                              : Audio Coding 3
  158. Commercial name                          : Dolby Digital
  159. Codec ID                                 : A_AC3
  160. Duration                                 : 1 h 34 min
  161. Bit rate mode                            : Constant
  162. Bit rate                                 : 224 kb/s
  163. Channel(s)                               : 2 channels
  164. Channel layout                           : L R
  165. Sampling rate                            : 48.0 kHz
  166. Frame rate                               : 31.250 FPS (1536 SPF)
  167. Bit depth                                : 16 bits
  168. Compression mode                         : Lossy
  169. Stream size                              : 151 MiB (1%)
  170. Title                                    : Addams.Family.Values.1993.1080p.BluRay.REMUX.AVC.DTS-HD.MA.5.1-FGT
  171. Language                                 : French
  172. Service kind                             : Complete Main
  173. Default                                  : No
  174. Forced                                   : No

  175. Audio #8
  176. ID                                       : 9
  177. Format                                   : AC-3
  178. Format/Info                              : Audio Coding 3
  179. Commercial name                          : Dolby Digital
  180. Codec ID                                 : A_AC3
  181. Duration                                 : 1 h 34 min
  182. Bit rate mode                            : Constant
  183. Bit rate                                 : 224 kb/s
  184. Channel(s)                               : 2 channels
  185. Channel layout                           : L R
  186. Sampling rate                            : 48.0 kHz
  187. Frame rate                               : 31.250 FPS (1536 SPF)
  188. Bit depth                                : 16 bits
  189. Compression mode                         : Lossy
  190. Stream size                              : 151 MiB (1%)
  191. Title                                    : Addams.Family.Values.1993.1080p.BluRay.REMUX.AVC.DTS-HD.MA.5.1-FGT
  192. Language                                 : Japanese
  193. Service kind                             : Complete Main
  194. Default                                  : No
  195. Forced                                   : No

  196. Text #1
  197. ID                                       : 10
  198. Format                                   : PGS
  199. Muxing mode                              : zlib
  200. Codec ID                                 : S_HDMV/PGS
  201. Codec ID/Info                            : Picture based subtitle format used on BDs/HD-DVDs
  202. Duration                                 : 1 h 27 min
  203. Bit rate                                 : 34.7 kb/s
  204. Count of elements                        : 2414
  205. Stream size                              : 21.6 MiB (0%)
  206. Language                                 : English
  207. Default                                  : Yes
  208. Forced                                   : No

  209. Text #2
  210. ID                                       : 11
  211. Format                                   : PGS
  212. Muxing mode                              : zlib
  213. Codec ID                                 : S_HDMV/PGS
  214. Codec ID/Info                            : Picture based subtitle format used on BDs/HD-DVDs
  215. Duration                                 : 1 h 33 min
  216. Bit rate                                 : 42.0 kb/s
  217. Count of elements                        : 2237
  218. Stream size                              : 28.2 MiB (0%)
  219. Language                                 : English
  220. Default                                  : No
  221. Forced                                   : No

  222. Text #3
  223. ID                                       : 12
  224. Format                                   : PGS
  225. Muxing mode                              : zlib
  226. Codec ID                                 : S_HDMV/PGS
  227. Codec ID/Info                            : Picture based subtitle format used on BDs/HD-DVDs
  228. Duration                                 : 1 h 27 min
  229. Bit rate                                 : 34.3 kb/s
  230. Count of elements                        : 1814
  231. Stream size                              : 21.4 MiB (0%)
  232. Language                                 : Spanish
  233. Default                                  : No
  234. Forced                                   : No

  235. Text #4
  236. ID                                       : 13
  237. Format                                   : PGS
  238. Muxing mode                              : zlib
  239. Codec ID                                 : S_HDMV/PGS
  240. Codec ID/Info                            : Picture based subtitle format used on BDs/HD-DVDs
  241. Duration                                 : 1 h 27 min
  242. Bit rate                                 : 31.0 kb/s
  243. Count of elements                        : 1872
  244. Stream size                              : 19.3 MiB (0%)
  245. Language                                 : Spanish
  246. Default                                  : No
  247. Forced                                   : No

  248. Text #5
  249. ID                                       : 14
  250. Format                                   : PGS
  251. Muxing mode                              : zlib
  252. Codec ID                                 : S_HDMV/PGS
  253. Codec ID/Info                            : Picture based subtitle format used on BDs/HD-DVDs
  254. Duration                                 : 1 h 27 min
  255. Bit rate                                 : 35.0 kb/s
  256. Count of elements                        : 1978
  257. Stream size                              : 21.8 MiB (0%)
  258. Language                                 : Italian
  259. Default                                  : No
  260. Forced                                   : No

  261. Text #6
  262. ID                                       : 15
  263. Format                                   : PGS
  264. Muxing mode                              : zlib
  265. Codec ID                                 : S_HDMV/PGS
  266. Codec ID/Info                            : Picture based subtitle format used on BDs/HD-DVDs
  267. Duration                                 : 1 h 27 min
  268. Bit rate                                 : 33.4 kb/s
  269. Count of elements                        : 1840
  270. Stream size                              : 20.8 MiB (0%)
  271. Language                                 : German
  272. Default                                  : No
  273. Forced                                   : No

  274. Text #7
  275. ID                                       : 16
  276. Format                                   : PGS
  277. Muxing mode                              : zlib
  278. Codec ID                                 : S_HDMV/PGS
  279. Codec ID/Info                            : Picture based subtitle format used on BDs/HD-DVDs
  280. Duration                                 : 1 h 27 min
  281. Bit rate                                 : 31.5 kb/s
  282. Count of elements                        : 2092
  283. Stream size                              : 19.6 MiB (0%)
  284. Language                                 : French
  285. Default                                  : No
  286. Forced                                   : No

  287. Text #8
  288. ID                                       : 17
  289. Format                                   : PGS
  290. Muxing mode                              : zlib
  291. Codec ID                                 : S_HDMV/PGS
  292. Codec ID/Info                            : Picture based subtitle format used on BDs/HD-DVDs
  293. Duration                                 : 1 h 27 min
  294. Bit rate                                 : 25.8 kb/s
  295. Count of elements                        : 2350
  296. Stream size                              : 16.1 MiB (0%)
  297. Language                                 : Japanese
  298. Default                                  : No
  299. Forced                                   : No

  300. Text #9
  301. ID                                       : 18
  302. Format                                   : PGS
  303. Muxing mode                              : zlib
  304. Codec ID                                 : S_HDMV/PGS
  305. Codec ID/Info                            : Picture based subtitle format used on BDs/HD-DVDs
  306. Duration                                 : 1 h 27 min
  307. Bit rate                                 : 31.1 kb/s
  308. Count of elements                        : 1732
  309. Stream size                              : 19.3 MiB (0%)
  310. Language                                 : Danish
  311. Default                                  : No
  312. Forced                                   : No

  313. Text #10
  314. ID                                       : 19
  315. Format                                   : PGS
  316. Muxing mode                              : zlib
  317. Codec ID                                 : S_HDMV/PGS
  318. Codec ID/Info                            : Picture based subtitle format used on BDs/HD-DVDs
  319. Duration                                 : 1 h 27 min
  320. Bit rate                                 : 31.1 kb/s
  321. Count of elements                        : 1848
  322. Stream size                              : 19.4 MiB (0%)
  323. Language                                 : Dutch
  324. Default                                  : No
  325. Forced                                   : No

  326. Text #11
  327. ID                                       : 20
  328. Format                                   : PGS
  329. Muxing mode                              : zlib
  330. Codec ID                                 : S_HDMV/PGS
  331. Codec ID/Info                            : Picture based subtitle format used on BDs/HD-DVDs
  332. Duration                                 : 1 h 27 min
  333. Bit rate                                 : 27.3 kb/s
  334. Count of elements                        : 1508
  335. Stream size                              : 17.0 MiB (0%)
  336. Language                                 : Norwegian Nynorsk
  337. Default                                  : No
  338. Forced                                   : No

  339. Text #12
  340. ID                                       : 21
  341. Format                                   : PGS
  342. Muxing mode                              : zlib
  343. Codec ID                                 : S_HDMV/PGS
  344. Codec ID/Info                            : Picture based subtitle format used on BDs/HD-DVDs
  345. Duration                                 : 1 h 27 min
  346. Bit rate                                 : 31.8 kb/s
  347. Count of elements                        : 1692
  348. Stream size                              : 19.8 MiB (0%)
  349. Language                                 : Finnish
  350. Default                                  : No
  351. Forced                                   : No

  352. Text #13
  353. ID                                       : 22
  354. Format                                   : PGS
  355. Muxing mode                              : zlib
  356. Codec ID                                 : S_HDMV/PGS
  357. Codec ID/Info                            : Picture based subtitle format used on BDs/HD-DVDs
  358. Duration                                 : 1 h 27 min
  359. Bit rate                                 : 26.7 kb/s
  360. Count of elements                        : 1504
  361. Stream size                              : 16.6 MiB (0%)
  362. Language                                 : Swedish
  363. Default                                  : No
  364. Forced                                   : No

  365. Text #14
  366. ID                                       : 23
  367. Format                                   : PGS
  368. Muxing mode                              : zlib
  369. Codec ID                                 : S_HDMV/PGS
  370. Codec ID/Info                            : Picture based subtitle format used on BDs/HD-DVDs
  371. Duration                                 : 1 h 24 min
  372. Bit rate                                 : 1 013 b/s
  373. Count of elements                        : 54
  374. Stream size                              : 625 KiB (0%)
  375. Language                                 : German
  376. Default                                  : No
  377. Forced                                   : No

  378. Text #15
  379. ID                                       : 24
  380. Format                                   : PGS
  381. Muxing mode                              : zlib
  382. Codec ID                                 : S_HDMV/PGS
  383. Codec ID/Info                            : Picture based subtitle format used on BDs/HD-DVDs
  384. Duration                                 : 1 h 24 min
  385. Bit rate                                 : 276 b/s
  386. Count of elements                        : 14
  387. Stream size                              : 171 KiB (0%)
  388. Language                                 : French
  389. Default                                  : No
  390. Forced                                   : No

  391. Text #16
  392. ID                                       : 25
  393. Format                                   : PGS
  394. Muxing mode                              : zlib
  395. Codec ID                                 : S_HDMV/PGS
  396. Codec ID/Info                            : Picture based subtitle format used on BDs/HD-DVDs
  397. Duration                                 : 1 h 19 min
  398. Bit rate                                 : 654 b/s
  399. Count of elements                        : 56
  400. Stream size                              : 381 KiB (0%)
  401. Language                                 : Japanese
  402. Default                                  : No
  403. Forced                                   : No

  404. Menu
  405. 00:00:00.000                             : en:Chapter 01
  406. 00:04:54.085                             : en:Chapter 02
  407. 00:10:20.411                             : en:Chapter 03
  408. 00:15:55.955                             : en:Chapter 04
  409. 00:20:20.552                             : en:Chapter 05
  410. 00:25:26.691                             : en:Chapter 06
  411. 00:38:26.304                             : en:Chapter 07
  412. 00:41:46.128                             : en:Chapter 08
  413. 00:44:27.247                             : en:Chapter 09
  414. 00:54:10.497                             : en:Chapter 10
  415. 00:58:03.062                             : en:Chapter 11
  416. 01:03:46.948                             : en:Chapter 12
  417. 01:15:05.459                             : en:Chapter 13
  418. 01:19:09.870                             : en:Chapter 14
  419. 01:24:37.155                             : en:Chapter 15
  420. 01:28:03.861                             : en:Chapter 16
復制代碼









分享到:  QQ好友和群QQ好友和群
收藏收藏
VIP會員免費任意下載本站所有資源!---點擊開通
回復

使用道具 舉報

級別:初級觀眾 Lv.1

注冊時間
2018-6-24
最后登錄
2019-10-9
聽眾
9
收聽
0
主題
0
藍光幣
2 枚
貢獻
0 點
QQ
沙發
發表于 2019-10-9 21:52:51 | 只看該作者
樓主發貼辛苦了,謝謝樓主分享!我覺得中國高清電影網是注冊對了!
VIP會員免費任意下載本站所有資源!---點擊開通
回復

使用道具 舉報

懶得打字嘛,點擊右側快捷回復 【右側內容,后臺自定義】
您需要登錄后才可以回帖 登錄 | 立即注冊

本版積分規則

QQ|Archiver|手機版|小黑屋| 中國高清網 |網站地圖

GMT+8, 2019-12-6 02:18 , Processed in 0.133946 second(s), 37 queries .

Powered by HDchina X3.4

Copyright 2017-2019©HDchina.All right reserved

返回頂部 聯系我們
中国福利彩票的排列三