查看: 64|回復: 2
打印 上一主題 下一主題

[劇情片] 我的生命之光/一生榮耀 Light.of.My.Life.2019.1080p.BluRay.x264.DTS-HD.MA.5.1-FGT 10.25GB

[復制鏈接]

 成長值: 3360

級別:資源管理組

注冊時間
2017-10-20
最后登錄
2019-12-5
聽眾
1
收聽
0
主題
88012
藍光幣
68090 枚
貢獻
12374 點
跳轉到指定樓層
樓主
發表于 2019-10-7 14:25:23 | 只看該作者 |只看大圖 回帖獎勵 |倒序瀏覽 |閱讀模式


譯  名 我的生命之光 / 一生榮耀 / 我生命中的光
片  名 Light of My Life
年  代 2019
產  地 美國
類  別 劇情
語  言 英語
上映日期 2019-02-08(柏林電影節) / 2019-08-09(美國)
IMDb評分  7.4/10 from 166 users
IMDb鏈接  http://www.imdb.com/title/tt6063090
豆瓣評分 6.8/10 from 237 users
豆瓣鏈接 https://movie.douban.com/subject/26962841/
片  長 119分鐘
導  演 卡西·阿弗萊克 Casey Affleck
編  劇 卡西·阿弗萊克 Casey Affleck
主  演 卡西·阿弗萊克 Casey Affleck
       伊麗莎白·莫斯 Elisabeth Moss
       安娜·尼奧斯基 Anna Pniowsky
       湯姆·鮑爾 Tom Bower
       蒂莫西·韋伯 Timothy Webber
       蒙克·塞雷爾·弗里德 Monk Serrell Freed
       Hrothgar Mathews
       Kory Grim
       Patrick Keating
       Jesse James Pierce


標  簽 2019 | 美國 | 卡西·阿弗萊克 | 劇情 | 柏林電影節 | CaseyAffleck | 美國電影 | Casey_Affleck

簡  介  

  影片故事講述一名父親傾盡所有去保護自己的女兒。
  1. Video
  2. ID                                       : 1
  3. Format                                   : AVC
  4. Format/Info                              : Advanced Video Codec
  5. Format profile                           : [email protected]
  6. Format settings                          : CABAC / 4 Ref Frames
  7. Format settings, CABAC                   : Yes
  8. Format settings, Reference frames        : 4 frames
  9. Codec ID                                 : V_MPEG4/ISO/AVC
  10. Duration                                 : 1 h 59 min
  11. Bit rate                                 : 8 932 kb/s
  12. Width                                    : 1 792 pixels
  13. Height                                   : 1 080 pixels
  14. Display aspect ratio                     : 5:3
  15. Frame rate mode                          : Constant
  16. Frame rate                               : 23.976 (24000/1001) FPS
  17. Color space                              : YUV
  18. Chroma subsampling                       : 4:2:0
  19. Bit depth                                : 8 bits
  20. Scan type                                : Progressive
  21. Bits/(Pixel*Frame)                       : 0.192
  22. Stream size                              : 7.48 GiB (73%)
  23. Title                                    : Light.of.My.Life.2019.1080p.BluRay.x264.DTS-HD.MA.5.1-FGT
  24. Writing library                          : x264 core 158 r2984 3759fcb
  25. Encoding settings                        : cabac=1 / ref=4 / deblock=1:-3:-3 / analyse=0x3:0x113 / me=umh / subme=8 / psy=1 / psy_rd=1.00:0.00 / mixed_ref=1 / me_range=16 / chroma_me=1 / trellis=1 / 8x8dct=1 / cqm=0 / deadzone=21,11 / fast_pskip=1 / chroma_qp_offset=-2 / threads=30 / lookahead_threads=5 / sliced_threads=0 / nr=0 / decimate=1 / interlaced=0 / bluray_compat=0 / constrained_intra=0 / bframes=3 / b_pyramid=2 / b_adapt=1 / b_bias=0 / direct=3 / weightb=1 / open_gop=0 / weightp=2 / keyint=250 / keyint_min=23 / scenecut=40 / intra_refresh=0 / rc_lookahead=50 / rc=2pass / mbtree=1 / bitrate=8932 / ratetol=1.0 / qcomp=0.60 / qpmin=0 / qpmax=69 / qpstep=4 / cplxblur=20.0 / qblur=0.5 / ip_ratio=1.40 / aq=1:1.00
  26. Language                                 : English
  27. Default                                  : Yes
  28. Forced                                   : No

  29. Audio
  30. ID                                       : 2
  31. Format                                   : DTS XLL
  32. Format/Info                              : Digital Theater Systems
  33. Commercial name                          : DTS-HD Master Audio
  34. Codec ID                                 : A_DTS
  35. Duration                                 : 1 h 59 min
  36. Bit rate mode                            : Variable
  37. Bit rate                                 : 3 257 kb/s
  38. Channel(s)                               : 6 channels
  39. Channel layout                           : C L R Ls Rs LFE
  40. Sampling rate                            : 48.0 kHz
  41. Frame rate                               : 93.750 FPS (512 SPF)
  42. Bit depth                                : 24 bits
  43. Compression mode                         : Lossless
  44. Stream size                              : 2.73 GiB (27%)
  45. Title                                    : Light.of.My.Life.2019.1080p.BluRay.x264.DTS-HD.MA.5.1-FGT
  46. Language                                 : English
  47. Default                                  : Yes
  48. Forced                                   : No

  49. Text #1
  50. ID                                       : 3
  51. Format                                   : UTF-8
  52. Codec ID                                 : S_TEXT/UTF8
  53. Codec ID/Info                            : UTF-8 Plain Text
  54. Duration                                 : 1 h 54 min
  55. Bit rate                                 : 49 b/s
  56. Count of elements                        : 1254
  57. Stream size                              : 41.2 KiB (0%)
  58. Title                                    : English-SRT
  59. Language                                 : English
  60. Default                                  : Yes
  61. Forced                                   : No

  62. Text #2
  63. ID                                       : 4
  64. Format                                   : PGS
  65. Muxing mode                              : zlib
  66. Codec ID                                 : S_HDMV/PGS
  67. Codec ID/Info                            : Picture based subtitle format used on BDs/HD-DVDs
  68. Duration                                 : 1 h 54 min
  69. Bit rate                                 : 34.5 kb/s
  70. Count of elements                        : 2300
  71. Stream size                              : 28.2 MiB (0%)
  72. Title                                    : English-PGS
  73. Language                                 : English
  74. Default                                  : No
  75. Forced                                   : No

  76. Text #3
  77. ID                                       : 5
  78. Format                                   : PGS
  79. Muxing mode                              : zlib
  80. Codec ID                                 : S_HDMV/PGS
  81. Codec ID/Info                            : Picture based subtitle format used on BDs/HD-DVDs
  82. Duration                                 : 1 h 54 min
  83. Bit rate                                 : 39.2 kb/s
  84. Count of elements                        : 2754
  85. Stream size                              : 32.1 MiB (0%)
  86. Title                                    : English-SDH-PGS
  87. Language                                 : English
  88. Default                                  : No
  89. Forced                                   : No

  90. Text #4
  91. ID                                       : 6
  92. Format                                   : PGS
  93. Muxing mode                              : zlib
  94. Codec ID                                 : S_HDMV/PGS
  95. Codec ID/Info                            : Picture based subtitle format used on BDs/HD-DVDs
  96. Duration                                 : 1 h 54 min
  97. Bit rate                                 : 31.3 kb/s
  98. Count of elements                        : 2320
  99. Stream size                              : 25.6 MiB (0%)
  100. Title                                    : Spanish-PGS
  101. Language                                 : Spanish
  102. Default                                  : No
  103. Forced                                   : No

  104. Menu
  105. 00:00:00.000                             : en:Chapter 01
  106. 00:12:13.107                             : en:Chapter 02
  107. 00:18:44.039                             : en:Chapter 03
  108. 00:26:57.115                             : en:Chapter 04
  109. 00:35:30.878                             : en:Chapter 05
  110. 00:43:29.982                             : en:Chapter 06
  111. 00:48:57.559                             : en:Chapter 07
  112. 00:58:51.861                             : en:Chapter 08
  113. 01:09:07.434                             : en:Chapter 09
  114. 01:15:28.732                             : en:Chapter 10
  115. 01:21:34.306                             : en:Chapter 11
  116. 01:26:47.702                             : en:Chapter 12
  117. 01:32:53.776                             : en:Chapter 13
  118. 01:38:16.348                             : en:Chapter 14
  119. 01:47:58.847                             : en:Chapter 15
  120. 01:55:19.120                             : en:Chapter 16
復制代碼









分享到:  QQ好友和群QQ好友和群
收藏收藏
VIP會員免費任意下載本站所有資源!---點擊開通
回復

使用道具 舉報

級別:榮升主角 Lv.5

注冊時間
2018-2-26
最后登錄
2019-12-5
聽眾
16
收聽
0
主題
0
藍光幣
270 枚
貢獻
0 點
沙發
發表于 2019-10-8 10:06:37 | 只看該作者

論壇不能沒有像樓主這樣的人才啊!我會一直支持中國高清電影網
VIP會員免費任意下載本站所有資源!---點擊開通
回復

使用道具 舉報

級別:初級觀眾 Lv.1

注冊時間
2019-10-9
最后登錄
2019-10-11
聽眾
0
收聽
0
主題
0
藍光幣
4 枚
貢獻
0 點
QQ
板凳
發表于 2019-10-9 21:57:22 | 只看該作者

樓主太厲害了!樓主,電影應該很好看我覺得中國高清電影網真是個好地方!
VIP會員免費任意下載本站所有資源!---點擊開通
回復

使用道具 舉報

懶得打字嘛,點擊右側快捷回復 【右側內容,后臺自定義】
您需要登錄后才可以回帖 登錄 | 立即注冊

本版積分規則

QQ|Archiver|手機版|小黑屋| 中國高清網 |網站地圖

GMT+8, 2019-12-5 13:06 , Processed in 0.176723 second(s), 37 queries .

Powered by HDchina X3.4

Copyright 2017-2019©HDchina.All right reserved

返回頂部 聯系我們
中国福利彩票的排列三