查看: 217|回復: 0
打印 上一主題 下一主題

[10bit.HDR] 千尸屋3 3.from.Hell.2019.2160p.UHD.BluRay.X265.10bit.HDR.TrueHD.7.1-TERMiNAL 25.20GB

[復制鏈接]

 成長值: 3350

級別:資源管理組

注冊時間
2017-10-20
最后登錄
2019-12-4
聽眾
1
收聽
0
主題
88001
藍光幣
67898 枚
貢獻
12363 點
跳轉到指定樓層
樓主
發表于 2019-10-7 14:45:38 | 只看該作者 |只看大圖 回帖獎勵 |倒序瀏覽 |閱讀模式


譯  名 千尸屋3 / Three From Hell / 恐怖三人組
片  名 3 from Hell
年  代 2019
產  地 美國
類  別 恐怖
語  言 英語
上映日期 2019-09-18(美國)
IMDb評分  6.6/10 from 1120 users
IMDb鏈接  http://www.imdb.com/title/tt8134742
豆瓣評分 0/10 from 0 users
豆瓣鏈接 https://movie.douban.com/subject/30254678/
片  長 111分鐘
導  演 羅布·贊比 Rob Zombie
編  劇 羅布·贊比 Rob Zombie
主  演 雪莉·穆恩·贊比 Sheri Moon Zombie
       希德·黑格 Sid Haig
       比爾·莫斯利 Bill Moseley
       埃米里奧·瑞弗拉 Emilio Rivera
       丹尼·特雷霍 Danny Trejo
       克林特·霍華德 Clint Howard
       理查德·布雷克 Richard Brake
       丹尼爾·洛巴克 Daniel Roebuck
       杰弗里·丹尼爾·菲利普斯 Jeffrey Daniel Phillips
       戴維·尤里 David Ury
       迪·沃倫斯 Dee Wallace
       多特-瑪麗·瓊斯 Dot-Marie Jones
       西恩·瓦蘭 Sean Whalen
       理查德·里爾 Richard Riehle
       馬修·維利希 Matthew Willig
       西爾維婭·杰弗里斯 Sylvia Jefferies
       理查德·埃德森 Richard Edson
       盧辛達·珍妮 Lucinda Jenney
       史蒂芬·邁克爾·克扎達 Steven Michael Quezada
       克里斯托弗·B·鄧肯 Christopher B. Duncan
       小比爾·奧伯斯特 Bill Oberst Jr.
       比利·布萊爾 Billy Blair
       杜恩·惠特克 Duane Whitaker
       馬里亞諾·門多薩 Mariano Mendoza
       簡·霍格 Jan Hoag
       尼克·科尼特 Nic Cornett
       Tom Papa
       Pancho Moler
       Austin Stoker
       Chastity Bono
       Stacie Greenwell
       Rian Bishop


標  簽 恐怖 | 美國 | 羅布·贊比 | RobZombie | 美國電影 | 電影 | 犯罪 | 美國

簡  介  

  Sequel to The Devil's Rejects.
  1. Video
  2. ID                                       : 1
  3. Format                                   : HEVC
  4. Format/Info                              : High Efficiency Video Coding
  5. Format profile                           : Main [email protected]@High
  6. HDR format                               : SMPTE ST 2086, HDR10 compatible
  7. Codec ID                                 : V_MPEGH/ISO/HEVC
  8. Duration                                 : 1 h 55 min
  9. Bit rate                                 : 27.7 Mb/s
  10. Width                                    : 3 840 pixels
  11. Height                                   : 2 076 pixels
  12. Display aspect ratio                     : 1.85:1
  13. Frame rate mode                          : Constant
  14. Frame rate                               : 23.976 (24000/1001) FPS
  15. Color space                              : YUV
  16. Chroma subsampling                       : 4:2:0 (Type 2)
  17. Bit depth                                : 10 bits
  18. Bits/(Pixel*Frame)                       : 0.145
  19. Stream size                              : 22.4 GiB (90%)
  20. Writing library                          : x265 3.1+14-f08461fdae33:[Windows][GCC 9.2.0][64 bit] 10bit
  21. Encoding settings                        : cpuid=1111039 / frame-threads=6 / numa-pools=36 / wpp / no-pmode / no-pme / no-psnr / no-ssim / log-level=2 / input-csp=1 / input-res=3840x2076 / interlace=0 / total-frames=166584 / level-idc=51 / high-tier=1 / uhd-bd=0 / ref=4 / no-allow-non-conformance / repeat-headers / annexb / aud / hrd / info / hash=0 / no-temporal-layers / no-open-gop / min-keyint=1 / keyint=24 / gop-lookahead=0 / bframes=4 / b-adapt=2 / b-pyramid / bframe-bias=0 / rc-lookahead=25 / lookahead-slices=4 / scenecut=40 / radl=0 / no-splice / no-intra-refresh / ctu=64 / min-cu-size=8 / rect / no-amp / max-tu-size=32 / tu-inter-depth=1 / tu-intra-depth=1 / limit-tu=0 / rdoq-level=2 / dynamic-rd=0.00 / no-ssim-rd / signhide / no-tskip / nr-intra=0 / nr-inter=0 / no-constrained-intra / no-strong-intra-smoothing / max-merge=3 / limit-refs=3 / limit-modes / me=3 / subme=3 / merange=57 / temporal-mvp / no-hme / weightp / no-weightb / no-analyze-src-pics / deblock=-3:-3 / no-sao / no-sao-non-deblock / rd=4 / no-early-skip / rskip / no-fast-intra / no-tskip-fast / no-cu-lossless / no-b-intra / no-splitrd-skip / rdpenalty=0 / psy-rd=2.00 / psy-rdoq=1.00 / no-rd-refine / no-lossless / cbqpoffs=0 / crqpoffs=0 / rc=crf / crf=17.0 / qcomp=0.60 / qpstep=4 / stats-write=0 / stats-read=0 / vbv-maxrate=160000 / vbv-bufsize=160000 / vbv-init=0.9 / crf-max=0.0 / crf-min=0.0 / ipratio=1.40 / pbratio=1.30 / aq-mode=2 / aq-strength=1.00 / cutree / zone-count=0 / no-strict-cbr / qg-size=32 / no-rc-grain / qpmax=69 / qpmin=0 / no-const-vbv / sar=1 / overscan=0 / videoformat=5 / range=0 / colorprim=9 / transfer=16 / colormatrix=9 / chromaloc=1 / chromaloc-top=2 / chromaloc-bottom=2 / display-window=0 / master-display=G(8500,39850)B(6550,2300)R(35400,14600)WP(15635,16450)L(10000000,1)cll=962,885 / min-luma=0 / max-luma=1023 / log2-max-poc-lsb=8 / vui-timing-info / vui-hrd-info / slices=1 / no-opt-qp-pps / no-opt-ref-list-length-pps / no-multi-pass-opt-rps / scenecut-bias=0.05 / no-opt-cu-delta-qp / no-aq-motion / hdr / hdr-opt / no-dhdr10-opt / no-idr-recovery-sei / analysis-reuse-level=5 / scale-factor=0 / refine-intra=0 / refine-inter=0 / refine-mv=0 / refine-ctu-distortion=0 / no-limit-sao / ctu-info=0 / no-lowpass-dct / refine-analysis-type=0 / copy-pic=1 / max-ausize-factor=1.0 / no-dynamic-refine / no-single-sei / no-hevc-aq / no-svt / no-field / qp-adaptation-range=1.00
  22. Default                                  : Yes
  23. Forced                                   : No
  24. Color range                              : Limited
  25. Color primaries                          : BT.2020
  26. Transfer characteristics                 : PQ
  27. Matrix coefficients                      : BT.2020 non-constant
  28. Mastering display color primaries        : BT.2020
  29. Mastering display luminance              : min: 0.0001 cd/m2, max: 1000 cd/m2
  30. Maximum Content Light Level              : 962 cd/m2
  31. Maximum Frame-Average Light Level        : 885 cd/m2

  32. Audio #1
  33. ID                                       : 2
  34. Format                                   : MLP FBA
  35. Format/Info                              : Meridian Lossless Packing FBA
  36. Commercial name                          : Dolby TrueHD
  37. Codec ID                                 : A_TRUEHD
  38. Duration                                 : 1 h 55 min
  39. Bit rate mode                            : Variable
  40. Bit rate                                 : 2 248 kb/s
  41. Maximum bit rate                         : 4 176 kb/s
  42. Channel(s)                               : 8 channels
  43. Channel layout                           : L R C LFE Ls Rs Lb Rb
  44. Sampling rate                            : 48.0 kHz
  45. Frame rate                               : 1 200.000 FPS (40 SPF)
  46. Compression mode                         : Lossless
  47. Stream size                              : 1.82 GiB (7%)
  48. Language                                 : English
  49. Default                                  : Yes
  50. Forced                                   : No

  51. Audio #2
  52. ID                                       : 3
  53. Format                                   : AC-3
  54. Format/Info                              : Audio Coding 3
  55. Commercial name                          : Dolby Digital
  56. Codec ID                                 : A_AC3
  57. Duration                                 : 1 h 55 min
  58. Bit rate mode                            : Constant
  59. Bit rate                                 : 640 kb/s
  60. Channel(s)                               : 6 channels
  61. Channel layout                           : L R C LFE Ls Rs
  62. Sampling rate                            : 48.0 kHz
  63. Frame rate                               : 31.250 FPS (1536 SPF)
  64. Bit depth                                : 16 bits
  65. Compression mode                         : Lossy
  66. Stream size                              : 530 MiB (2%)
  67. Language                                 : English
  68. Service kind                             : Complete Main
  69. Default                                  : No
  70. Forced                                   : No

  71. Audio #3
  72. ID                                       : 4
  73. Format                                   : AC-3
  74. Format/Info                              : Audio Coding 3
  75. Commercial name                          : Dolby Digital
  76. Codec ID                                 : A_AC3
  77. Duration                                 : 1 h 55 min
  78. Bit rate mode                            : Constant
  79. Bit rate                                 : 192 kb/s
  80. Channel(s)                               : 2 channels
  81. Channel layout                           : L R
  82. Sampling rate                            : 48.0 kHz
  83. Frame rate                               : 31.250 FPS (1536 SPF)
  84. Bit depth                                : 16 bits
  85. Compression mode                         : Lossy
  86. Stream size                              : 159 MiB (1%)
  87. Title                                    : Commentary with director and writer Rob Zombie
  88. Language                                 : English
  89. Service kind                             : Complete Main
  90. Default                                  : No
  91. Forced                                   : No

  92. Text #1
  93. ID                                       : 5
  94. Format                                   : PGS
  95. Muxing mode                              : zlib
  96. Codec ID                                 : S_HDMV/PGS
  97. Codec ID/Info                            : Picture based subtitle format used on BDs/HD-DVDs
  98. Duration                                 : 1 h 52 min
  99. Bit rate                                 : 40.0 kb/s
  100. Count of elements                        : 3224
  101. Stream size                              : 32.2 MiB (0%)
  102. Language                                 : English
  103. Default                                  : No
  104. Forced                                   : No

  105. Text #2
  106. ID                                       : 6
  107. Format                                   : PGS
  108. Muxing mode                              : zlib
  109. Codec ID                                 : S_HDMV/PGS
  110. Codec ID/Info                            : Picture based subtitle format used on BDs/HD-DVDs
  111. Duration                                 : 1 h 46 min
  112. Bit rate                                 : 35.3 kb/s
  113. Count of elements                        : 2784
  114. Stream size                              : 26.9 MiB (0%)
  115. Language                                 : Spanish
  116. Default                                  : No
  117. Forced                                   : No

  118. Menu
  119. 00:00:00.000                             : en:Chapter 01
  120. 00:06:18.920                             : en:Chapter 02
  121. 00:13:16.838                             : en:Chapter 03
  122. 00:21:29.538                             : en:Chapter 04
  123. 00:28:25.287                             : en:Chapter 05
  124. 00:33:30.050                             : en:Chapter 06
  125. 00:42:12.739                             : en:Chapter 07
  126. 00:48:23.150                             : en:Chapter 08
  127. 00:55:16.188                             : en:Chapter 09
  128. 01:05:21.167                             : en:Chapter 10
  129. 01:10:13.835                             : en:Chapter 11
  130. 01:21:00.939                             : en:Chapter 12
  131. 01:25:16.111                             : en:Chapter 13
  132. 01:31:16.262                             : en:Chapter 14
  133. 01:39:35.344                             : en:Chapter 15
  134. 01:46:39.476                             : en:Chapter 16
復制代碼




本帖隱藏的下載地址需要VIP會員才可瀏覽,您需要升級才可瀏覽,點擊這里升級VIP

分享到:  QQ好友和群QQ好友和群
收藏收藏
VIP會員免費任意下載本站所有資源!---點擊開通
回復

使用道具 舉報

懶得打字嘛,點擊右側快捷回復 【右側內容,后臺自定義】
您需要登錄后才可以回帖 登錄 | 立即注冊

本版積分規則

QQ|Archiver|手機版|小黑屋| 中國高清網 |網站地圖

GMT+8, 2019-12-4 21:12 , Processed in 0.171198 second(s), 36 queries .

Powered by HDchina X3.4

Copyright 2017-2019©HDchina.All right reserved

返回頂部 聯系我們
中国福利彩票的排列三