查看: 245|回復: 1
打印 上一主題 下一主題

[8bit.SDR] 優步危機/斯圖伯 Stuber.2019.2160p.BluRay.x264.8bit.SDR.DTS-HD.MA.TrueHD.7.1.Atmos-SWTYBLZ 30.12GB

[復制鏈接]

 成長值: 3260

級別:資源管理組

注冊時間
2017-10-20
最后登錄
2019-11-25
聽眾
1
收聽
0
主題
87547
藍光幣
64844 枚
貢獻
11906 點
跳轉到指定樓層
樓主
發表于 2019-10-7 14:56:45 | 只看該作者 |只看大圖 回帖獎勵 |倒序瀏覽 |閱讀模式


譯  名 優步危機 / 斯圖伯 / 狂玩嘢時速(港) / 玩命優步(臺)
片  名 Stuber
年  代 2019
產  地 美國
類  別 喜劇 / 動作
語  言 英語
上映日期 2019-07-12(美國)
IMDb評分  6.2/10 from 9167 users
IMDb鏈接  http://www.imdb.com/title/tt7734218
豆瓣評分 6.5/10 from 246 users
豆瓣鏈接 https://movie.douban.com/subject/27603782/
片  長 105分鐘
導  演 邁克爾·道斯 Michael Dowse
編  劇 特里珀·克蘭西 Tripper Clancy
主  演 戴夫·巴蒂斯塔 Dave Bautista
       庫梅爾·南賈尼 Kumail Nanjiani
       伊科·烏艾斯 Iko Uwais
       貝蒂·吉爾平 Betty Gilpin
       米拉·索維諾 Mira Sorvino
       娜塔麗·莫瑞絲 Natalie Morales
       約書亞·米克爾 Joshua Mikel
       阿明·約瑟夫 Amin Joseph
       斯科特·勞倫斯 Scott Lawrence
       克里斯汀·霍恩 Christine Horn
       漢斯·馬雷羅 Hans Marrero
       雷內?莫蘭 Rene Moran


標  簽 喜劇 | 動作 | 美國 | 2019 | 犯罪 | 搞笑 | 二十世紀福克斯 | 家庭

簡  介  

  南賈尼飾演一名性格溫和的Uber司機,某天載的乘客是一位頭發斑白的警察,他正在追捕一名殘忍的殺手。司機發現自己面臨艱巨考驗,他必須要保持冷靜,保證服務質量以獲得五星好評。
  1. Video
  2. ID                                       : 1
  3. Format                                   : AVC
  4. Format/Info                              : Advanced Video Codec
  5. Format profile                           : [email protected]
  6. Format settings                          : CABAC / 5 Ref Frames
  7. Format settings, CABAC                   : Yes
  8. Format settings, Reference frames        : 5 frames
  9. Codec ID                                 : V_MPEG4/ISO/AVC
  10. Duration                                 : 1 h 33 min
  11. Bit rate                                 : 37.2 Mb/s
  12. Width                                    : 3 840 pixels
  13. Height                                   : 1 608 pixels
  14. Display aspect ratio                     : 2.40:1
  15. Frame rate mode                          : Constant
  16. Frame rate                               : 23.976 (24000/1001) FPS
  17. Color space                              : YUV
  18. Chroma subsampling                       : 4:2:0
  19. Bit depth                                : 8 bits
  20. Scan type                                : Progressive
  21. Bits/(Pixel*Frame)                       : 0.252
  22. Stream size                              : 24.3 GiB (81%)
  23. Title                                    : Stuber.2019.2160p.BluRay.x264.8bit.SDR.DTS-HD.MA.TrueHD.7.1.Atmos-SWTYBLZ
  24. Writing library                          : x264 core 157 r2935 545de2f
  25. Encoding settings                        : cabac=1 / ref=5 / deblock=1:-1:-1 / analyse=0x3:0x113 / me=umh / subme=10 / psy=1 / psy_rd=1.00:0.15 / mixed_ref=1 / me_range=48 / chroma_me=1 / trellis=2 / 8x8dct=1 / cqm=0 / deadzone=21,11 / fast_pskip=1 / chroma_qp_offset=-3 / threads=48 / lookahead_threads=4 / sliced_threads=0 / nr=0 / decimate=0 / interlaced=0 / bluray_compat=0 / constrained_intra=0 / bframes=3 / b_pyramid=2 / b_adapt=2 / b_bias=0 / direct=3 / weightb=1 / open_gop=0 / weightp=2 / keyint=250 / keyint_min=23 / scenecut=40 / intra_refresh=0 / rc_lookahead=50 / rc=crf / mbtree=1 / crf=18.0 / qcomp=0.60 / qpmin=0 / qpmax=69 / qpstep=4 / ip_ratio=1.40 / aq=1:1.00
  26. Default                                  : Yes
  27. Forced                                   : No

  28. Audio #1
  29. ID                                       : 2
  30. Format                                   : MLP FBA 16-ch
  31. Format/Info                              : Meridian Lossless Packing FBA with 16-channel presentation
  32. Commercial name                          : Dolby TrueHD with Dolby Atmos
  33. Codec ID                                 : A_TRUEHD
  34. Duration                                 : 1 h 33 min
  35. Bit rate mode                            : Variable
  36. Bit rate                                 : 3 937 kb/s
  37. Maximum bit rate                         : 6 696 kb/s
  38. Channel(s)                               : 8 channels
  39. Channel layout                           : L R C LFE Ls Rs Lb Rb
  40. Sampling rate                            : 48.0 kHz
  41. Frame rate                               : 1 200.000 FPS (40 SPF)
  42. Compression mode                         : Lossless
  43. Stream size                              : 2.57 GiB (9%)
  44. Title                                    : Stuber.2019.2160p.BluRay.x264.8bit.SDR.DTS-HD.MA.TrueHD.7.1.Atmos-SWTYBLZ
  45. Language                                 : English
  46. Default                                  : Yes
  47. Forced                                   : No
  48. Number of dynamic objects                : 13
  49. Bed channel count                        : 1 channel
  50. Bed channel configuration                : LFE

  51. Audio #2
  52. ID                                       : 3
  53. Format                                   : DTS XLL
  54. Format/Info                              : Digital Theater Systems
  55. Commercial name                          : DTS-HD Master Audio
  56. Codec ID                                 : A_DTS
  57. Duration                                 : 1 h 33 min
  58. Bit rate mode                            : Variable
  59. Bit rate                                 : 3 908 kb/s
  60. Channel(s)                               : 8 channels
  61. Channel layout                           : C L R LFE Lb Rb Lss Rss
  62. Sampling rate                            : 48.0 kHz
  63. Frame rate                               : 93.750 FPS (512 SPF)
  64. Bit depth                                : 24 bits
  65. Compression mode                         : Lossless
  66. Stream size                              : 2.55 GiB (8%)
  67. Title                                    : Stuber.2019.2160p.BluRay.x264.8bit.SDR.DTS-HD.MA.TrueHD.7.1.Atmos-SWTYBLZ
  68. Language                                 : English
  69. Default                                  : No
  70. Forced                                   : No

  71. Audio #3
  72. ID                                       : 4
  73. Format                                   : AC-3
  74. Format/Info                              : Audio Coding 3
  75. Commercial name                          : Dolby Digital
  76. Codec ID                                 : A_AC3
  77. Duration                                 : 1 h 33 min
  78. Bit rate mode                            : Constant
  79. Bit rate                                 : 640 kb/s
  80. Channel(s)                               : 6 channels
  81. Channel layout                           : L R C LFE Ls Rs
  82. Sampling rate                            : 48.0 kHz
  83. Frame rate                               : 31.250 FPS (1536 SPF)
  84. Bit depth                                : 16 bits
  85. Compression mode                         : Lossy
  86. Stream size                              : 428 MiB (1%)
  87. Title                                    : Stuber.2019.2160p.BluRay.x264.8bit.SDR.DTS-HD.MA.TrueHD.7.1.Atmos-SWTYBLZ
  88. Language                                 : English
  89. Service kind                             : Complete Main
  90. Default                                  : No
  91. Forced                                   : No

  92. Text #1
  93. ID                                       : 5
  94. Format                                   : UTF-8
  95. Codec ID                                 : S_TEXT/UTF8
  96. Codec ID/Info                            : UTF-8 Plain Text
  97. Duration                                 : 1 h 26 min
  98. Bit rate                                 : 84 b/s
  99. Count of elements                        : 1967
  100. Stream size                              : 54.0 KiB (0%)
  101. Title                                    : English-SRT
  102. Language                                 : English
  103. Default                                  : Yes
  104. Forced                                   : No

  105. Text #2
  106. ID                                       : 6
  107. Format                                   : PGS
  108. Muxing mode                              : zlib
  109. Codec ID                                 : S_HDMV/PGS
  110. Codec ID/Info                            : Picture based subtitle format used on BDs/HD-DVDs
  111. Duration                                 : 1 h 27 min
  112. Bit rate                                 : 62.4 kb/s
  113. Count of elements                        : 4306
  114. Stream size                              : 38.9 MiB (0%)
  115. Title                                    : English-PGS
  116. Language                                 : English
  117. Default                                  : No
  118. Forced                                   : No

  119. Text #3
  120. ID                                       : 7
  121. Format                                   : PGS
  122. Muxing mode                              : zlib
  123. Codec ID                                 : S_HDMV/PGS
  124. Codec ID/Info                            : Picture based subtitle format used on BDs/HD-DVDs
  125. Duration                                 : 1 h 32 min
  126. Bit rate                                 : 47.6 kb/s
  127. Count of elements                        : 3592
  128. Stream size                              : 31.5 MiB (0%)
  129. Title                                    : Spanish-PGS
  130. Language                                 : Spanish
  131. Default                                  : No
  132. Forced                                   : No

  133. Text #4
  134. ID                                       : 8
  135. Format                                   : PGS
  136. Muxing mode                              : zlib
  137. Codec ID                                 : S_HDMV/PGS
  138. Codec ID/Info                            : Picture based subtitle format used on BDs/HD-DVDs
  139. Duration                                 : 1 h 32 min
  140. Bit rate                                 : 43.5 kb/s
  141. Count of elements                        : 3572
  142. Stream size                              : 28.8 MiB (0%)
  143. Title                                    : French-PGS
  144. Language                                 : French
  145. Default                                  : No
  146. Forced                                   : No

  147. Text #5
  148. ID                                       : 9
  149. Format                                   : PGS
  150. Muxing mode                              : zlib
  151. Codec ID                                 : S_HDMV/PGS
  152. Codec ID/Info                            : Picture based subtitle format used on BDs/HD-DVDs
  153. Duration                                 : 1 h 32 min
  154. Bit rate                                 : 43.9 kb/s
  155. Count of elements                        : 3262
  156. Stream size                              : 29.1 MiB (0%)
  157. Title                                    : Spanish-PGS
  158. Language                                 : Spanish
  159. Default                                  : No
  160. Forced                                   : No

  161. Text #6
  162. ID                                       : 10
  163. Format                                   : PGS
  164. Muxing mode                              : zlib
  165. Codec ID                                 : S_HDMV/PGS
  166. Codec ID/Info                            : Picture based subtitle format used on BDs/HD-DVDs
  167. Duration                                 : 1 h 32 min
  168. Bit rate                                 : 41.9 kb/s
  169. Count of elements                        : 2234
  170. Stream size                              : 27.7 MiB (0%)
  171. Title                                    : Danish-PGS
  172. Language                                 : Danish
  173. Default                                  : No
  174. Forced                                   : No

  175. Text #7
  176. ID                                       : 11
  177. Format                                   : PGS
  178. Muxing mode                              : zlib
  179. Codec ID                                 : S_HDMV/PGS
  180. Codec ID/Info                            : Picture based subtitle format used on BDs/HD-DVDs
  181. Duration                                 : 1 h 32 min
  182. Bit rate                                 : 38.9 kb/s
  183. Count of elements                        : 2362
  184. Stream size                              : 25.7 MiB (0%)
  185. Title                                    : Dutch-PGS
  186. Language                                 : Dutch
  187. Default                                  : No
  188. Forced                                   : No

  189. Text #8
  190. ID                                       : 12
  191. Format                                   : PGS
  192. Muxing mode                              : zlib
  193. Codec ID                                 : S_HDMV/PGS
  194. Codec ID/Info                            : Picture based subtitle format used on BDs/HD-DVDs
  195. Duration                                 : 1 h 32 min
  196. Bit rate                                 : 42.0 kb/s
  197. Count of elements                        : 3584
  198. Stream size                              : 27.8 MiB (0%)
  199. Title                                    : Finnish-PGS
  200. Language                                 : Finnish
  201. Default                                  : No
  202. Forced                                   : No

  203. Text #9
  204. ID                                       : 13
  205. Format                                   : PGS
  206. Muxing mode                              : zlib
  207. Codec ID                                 : S_HDMV/PGS
  208. Codec ID/Info                            : Picture based subtitle format used on BDs/HD-DVDs
  209. Duration                                 : 1 h 32 min
  210. Bit rate                                 : 46.3 kb/s
  211. Count of elements                        : 3386
  212. Stream size                              : 30.7 MiB (0%)
  213. Title                                    : German-PGS
  214. Language                                 : German
  215. Default                                  : No
  216. Forced                                   : No

  217. Text #10
  218. ID                                       : 14
  219. Format                                   : PGS
  220. Muxing mode                              : zlib
  221. Codec ID                                 : S_HDMV/PGS
  222. Codec ID/Info                            : Picture based subtitle format used on BDs/HD-DVDs
  223. Duration                                 : 1 h 32 min
  224. Bit rate                                 : 41.6 kb/s
  225. Count of elements                        : 3624
  226. Stream size                              : 27.5 MiB (0%)
  227. Title                                    : Italian-PGS
  228. Language                                 : Italian
  229. Default                                  : No
  230. Forced                                   : No

  231. Text #11
  232. ID                                       : 15
  233. Format                                   : PGS
  234. Muxing mode                              : zlib
  235. Codec ID                                 : S_HDMV/PGS
  236. Codec ID/Info                            : Picture based subtitle format used on BDs/HD-DVDs
  237. Duration                                 : 1 h 32 min
  238. Bit rate                                 : 44.0 kb/s
  239. Count of elements                        : 3622
  240. Stream size                              : 29.1 MiB (0%)
  241. Title                                    : Norwegian-PGS
  242. Language                                 : Norwegian
  243. Default                                  : No
  244. Forced                                   : No

  245. Text #12
  246. ID                                       : 16
  247. Format                                   : PGS
  248. Muxing mode                              : zlib
  249. Codec ID                                 : S_HDMV/PGS
  250. Codec ID/Info                            : Picture based subtitle format used on BDs/HD-DVDs
  251. Duration                                 : 1 h 32 min
  252. Bit rate                                 : 43.0 kb/s
  253. Count of elements                        : 3620
  254. Stream size                              : 28.5 MiB (0%)
  255. Title                                    : Swedish-PGS
  256. Language                                 : Swedish
  257. Default                                  : No
  258. Forced                                   : No

  259. Text #13
  260. ID                                       : 17
  261. Format                                   : PGS
  262. Muxing mode                              : zlib
  263. Codec ID                                 : S_HDMV/PGS
  264. Codec ID/Info                            : Picture based subtitle format used on BDs/HD-DVDs
  265. Duration                                 : 1 h 32 min
  266. Bit rate                                 : 43.7 kb/s
  267. Count of elements                        : 3626
  268. Stream size                              : 29.0 MiB (0%)
  269. Title                                    : Czech-PGS
  270. Language                                 : Czech
  271. Default                                  : No
  272. Forced                                   : No

  273. Text #14
  274. ID                                       : 18
  275. Format                                   : PGS
  276. Muxing mode                              : zlib
  277. Codec ID                                 : S_HDMV/PGS
  278. Codec ID/Info                            : Picture based subtitle format used on BDs/HD-DVDs
  279. Duration                                 : 1 h 27 min
  280. Bit rate                                 : 531 b/s
  281. Count of elements                        : 36
  282. Stream size                              : 340 KiB (0%)
  283. Title                                    : Czech-FORCED-PGS
  284. Language                                 : Czech
  285. Default                                  : No
  286. Forced                                   : No

  287. Text #15
  288. ID                                       : 19
  289. Format                                   : PGS
  290. Muxing mode                              : zlib
  291. Codec ID                                 : S_HDMV/PGS
  292. Codec ID/Info                            : Picture based subtitle format used on BDs/HD-DVDs
  293. Duration                                 : 1 h 32 min
  294. Bit rate                                 : 44.2 kb/s
  295. Count of elements                        : 3588
  296. Stream size                              : 29.3 MiB (0%)
  297. Title                                    : Hungarian-PGS
  298. Language                                 : Hungarian
  299. Default                                  : No
  300. Forced                                   : No

  301. Text #16
  302. ID                                       : 20
  303. Format                                   : PGS
  304. Muxing mode                              : zlib
  305. Codec ID                                 : S_HDMV/PGS
  306. Codec ID/Info                            : Picture based subtitle format used on BDs/HD-DVDs
  307. Duration                                 : 1 h 32 min
  308. Bit rate                                 : 29.0 kb/s
  309. Count of elements                        : 3626
  310. Stream size                              : 19.2 MiB (0%)
  311. Title                                    : Korean-PGS
  312. Language                                 : Korean
  313. Default                                  : No
  314. Forced                                   : No

  315. Text #17
  316. ID                                       : 21
  317. Format                                   : PGS
  318. Muxing mode                              : zlib
  319. Codec ID                                 : S_HDMV/PGS
  320. Codec ID/Info                            : Picture based subtitle format used on BDs/HD-DVDs
  321. Duration                                 : 1 h 33 min
  322. Bit rate                                 : 45.0 kb/s
  323. Count of elements                        : 3976
  324. Stream size                              : 30.0 MiB (0%)
  325. Title                                    : Korean-PGS
  326. Language                                 : Korean
  327. Default                                  : No
  328. Forced                                   : No

  329. Menu
  330. 00:00:00.000                             : en:Chapter 01
  331. 00:05:52.643                             : en:Chapter 02
  332. 00:09:56.846                             : en:Chapter 03
  333. 00:14:14.854                             : en:Chapter 04
  334. 00:17:30.591                             : en:Chapter 05
  335. 00:19:46.059                             : en:Chapter 06
  336. 00:22:40.275                             : en:Chapter 07
  337. 00:27:33.401                             : en:Chapter 08
  338. 00:31:30.680                             : en:Chapter 09
  339. 00:33:18.955                             : en:Chapter 10
  340. 00:35:39.887                             : en:Chapter 11
  341. 00:40:13.035                             : en:Chapter 12
  342. 00:45:05.202                             : en:Chapter 13
  343. 00:49:10.113                             : en:Chapter 14
  344. 00:52:36.987                             : en:Chapter 15
  345. 00:56:46.111                             : en:Chapter 16
  346. 01:01:54.001                             : en:Chapter 17
  347. 01:05:43.397                             : en:Chapter 18
  348. 01:08:37.196                             : en:Chapter 19
  349. 01:13:31.156                             : en:Chapter 20
  350. 01:16:44.516                             : en:Chapter 21
  351. 01:19:07.200                             : en:Chapter 22
  352. 01:23:54.779                             : en:Chapter 23
  353. 01:27:49.597                             : en:Chapter 24
復制代碼









本帖隱藏的下載地址需要VIP會員才可瀏覽,您需要升級才可瀏覽,點擊這里升級VIP
分享到:  QQ好友和群QQ好友和群
收藏收藏
VIP會員免費任意下載本站所有資源!---點擊開通
回復

使用道具 舉報

級別:普通觀眾 Lv.2

注冊時間
2019-10-23
最后登錄
2019-11-25
聽眾
0
收聽
0
主題
0
藍光幣
12 枚
貢獻
0 點
沙發
發表于 2019-10-23 23:40:37 | 只看該作者
樓主發貼辛苦了,謝謝樓主分享!我覺得中國高清電影網是注冊對了!
VIP會員免費任意下載本站所有資源!---點擊開通
回復

使用道具 舉報

懶得打字嘛,點擊右側快捷回復 【右側內容,后臺自定義】
您需要登錄后才可以回帖 登錄 | 立即注冊

本版積分規則

QQ|Archiver|手機版|小黑屋| 中國高清網 |網站地圖

GMT+8, 2019-11-25 15:08 , Processed in 1.095277 second(s), 36 queries .

Powered by HDchina X3.4

Copyright 2017-2019©HDchina.All right reserved

返回頂部 聯系我們
中国福利彩票的排列三