查看: 159|回復: 3
打印 上一主題 下一主題

[紀錄片] 蓋·馬丁的一戰坦克 Guy.Martin.WW1.Tank.2017.1080p.BluRay.x264-GHOULS 6.57GB

[復制鏈接]

 成長值: 3260

級別:資源管理組

注冊時間
2017-10-20
最后登錄
2019-11-25
聽眾
1
收聽
0
主題
87547
藍光幣
64844 枚
貢獻
11906 點
跳轉到指定樓層
樓主
發表于 2019-10-9 17:54:32 | 只看該作者 回帖獎勵 |倒序瀏覽 |閱讀模式


譯  名 蓋·馬丁的一戰坦克
片  名 Guy Martin WW1 Tank
年  代 2017
產  地 英國
類  別 紀錄片
語  言 英語
上映日期 2017-11-19(英國)
IMDb評分  7.3/10 from 60 users
IMDb鏈接  http://www.imdb.com/title/tt7664228
豆瓣評分 0/10 from 0 users
豆瓣鏈接 https://movie.douban.com/subject/30164441/
片  長 120分鐘
導  演 Ewan Keil
主  演 蓋·馬丁 Guy Martin


標  簽 紀錄片

簡  介  

  暫無相關劇情介紹
  1. Video
  2. ID                                       : 1
  3. Format                                   : AVC
  4. Format/Info                              : Advanced Video Codec
  5. Format profile                           : [email protected]
  6. Format settings                          : CABAC / 4 Ref Frames
  7. Format settings, CABAC                   : Yes
  8. Format settings, RefFrames               : 4 frames
  9. Codec ID                                 : V_MPEG4/ISO/AVC
  10. Duration                                 : 1 h 29 min
  11. Bit rate                                 : 9 903 kb/s
  12. Width                                    : 1 920 pixels
  13. Height                                   : 1 080 pixels
  14. Display aspect ratio                     : 16:9
  15. Frame rate mode                          : Constant
  16. Frame rate                               : 25.000 FPS
  17. Color space                              : YUV
  18. Chroma subsampling                       : 4:2:0
  19. Bit depth                                : 8 bits
  20. Scan type                                : Progressive
  21. Bits/(Pixel*Frame)                       : 0.191
  22. Stream size                              : 6.02 GiB (92%)
  23. Writing library                          : x264 core 155 r2901 7d0ff22
  24. Encoding settings                        : cabac=1 / ref=4 / deblock=1:-3:-3 / analyse=0x3:0x133 / me=umh / subme=8 / psy=1 / psy_rd=1.00:0.00 / mixed_ref=1 / me_range=16 / chroma_me=1 / trellis=1 / 8x8dct=1 / cqm=0 / deadzone=21,11 / fast_pskip=0 / chroma_qp_offset=-2 / threads=24 / lookahead_threads=4 / sliced_threads=0 / nr=0 / decimate=1 / interlaced=0 / bluray_compat=0 / constrained_intra=0 / bframes=3 / b_pyramid=2 / b_adapt=1 / b_bias=0 / direct=3 / weightb=1 / open_gop=0 / weightp=2 / keyint=250 / keyint_min=25 / scenecut=40 / intra_refresh=0 / rc_lookahead=50 / rc=2pass / mbtree=1 / bitrate=9903 / ratetol=1.0 / qcomp=0.60 / qpmin=0 / qpmax=69 / qpstep=4 / cplxblur=20.0 / qblur=0.5 / vbv_maxrate=62500 / vbv_bufsize=78125 / nal_hrd=none / filler=0 / ip_ratio=1.40 / aq=1:1.00
  25. Default                                  : Yes
  26. Forced                                   : No

  27. Audio
  28. ID                                       : 2
  29. Format                                   : AC-3
  30. Format/Info                              : Audio Coding 3
  31. Format settings, Endianness              : Big
  32. Codec ID                                 : A_AC3
  33. Duration                                 : 1 h 29 min
  34. Bit rate mode                            : Constant
  35. Bit rate                                 : 640 kb/s
  36. Channel(s)                               : 2 channels
  37. Channel positions                        : Front: L R
  38. Sampling rate                            : 48.0 kHz
  39. Frame rate                               : 31.250 FPS (1536 SPF)
  40. Bit depth                                : 16 bits
  41. Compression mode                         : Lossy
  42. Stream size                              : 408 MiB (6%)
  43. Language                                 : English
  44. Service kind                             : Complete Main
  45. Default                                  : Yes
  46. Forced                                   : No

  47. Menu
  48. 00:00:00.000                             : en:00:00:00.000
  49. 00:10:30.520                             : en:00:10:30.520
  50. 00:21:05.560                             : en:00:21:05.560
  51. 00:30:36.680                             : en:00:30:36.680
  52. 00:41:52.000                             : en:00:41:52.000
  53. 00:53:26.360                             : en:00:53:26.360
  54. 01:04:47.800                             : en:01:04:47.800
  55. 01:17:05.080                             : en:01:17:05.080
復制代碼








分享到:  QQ好友和群QQ好友和群
收藏收藏
VIP會員免費任意下載本站所有資源!---點擊開通
回復

使用道具 舉報

級別:專業龍套 Lv.4

注冊時間
2019-7-28
最后登錄
2019-11-24
聽眾
4
收聽
0
主題
0
藍光幣
170 枚
貢獻
0 點
沙發
發表于 2019-10-9 20:17:36 | 只看該作者
樓主發貼辛苦了,謝謝樓主分享!我覺得中國高清電影網是注冊對了!
VIP會員免費任意下載本站所有資源!---點擊開通
回復

使用道具 舉報

級別:初級觀眾 Lv.1

注冊時間
2019-10-9
最后登錄
2019-10-11
聽眾
0
收聽
0
主題
0
藍光幣
4 枚
貢獻
0 點
QQ
板凳
發表于 2019-10-9 21:56:29 | 只看該作者
樓主發貼辛苦了,謝謝樓主分享!我覺得中國高清電影網是注冊對了!
VIP會員免費任意下載本站所有資源!---點擊開通
回復

使用道具 舉報

級別:榮升主角 Lv.5

注冊時間
2018-2-26
最后登錄
2019-11-25
聽眾
15
收聽
0
主題
0
藍光幣
272 枚
貢獻
0 點
地板
發表于 2019-10-10 09:18:35 | 只看該作者

我看不錯噢 謝謝樓主!中國高清電影網越來越好!
VIP會員免費任意下載本站所有資源!---點擊開通
回復

使用道具 舉報

懶得打字嘛,點擊右側快捷回復 【右側內容,后臺自定義】
您需要登錄后才可以回帖 登錄 | 立即注冊

本版積分規則

QQ|Archiver|手機版|小黑屋| 中國高清網 |網站地圖

GMT+8, 2019-11-25 15:06 , Processed in 1.273926 second(s), 37 queries .

Powered by HDchina X3.4

Copyright 2017-2019©HDchina.All right reserved

返回頂部 聯系我們
中国福利彩票的排列三